Torrent Search | Torrent Meta Search | Widgets

Mummy Edit Junior Acrobat Vol 14 03

94.23 Mb
found 3 years ago
▲ seeders: 2 ▼ leechers:2
your vote:
real:
fake:
Direct Download
THANK YOU
download torrent
  Direct Downloadsponsored

Mummy Edit Junior Acrobat Vol 14 03 torrent

Information about the torrent Mummy Edit Junior Acrobat Vol 14 03. Seeders, leechers and torrent status is updated several times per day.

If you want to download the video torrent Mummy Edit Junior Acrobat Vol 14 03 you will need a torrent client.

Torrent Metasearch.

tracker
seeders
leechers
↓ torrent client compatible list

↑ hide torrent client compatible list

Help torrentproject.com to stay alive .
Add links of torrentproject.com in your favorite forum, blog, youtube, facebook, twitter etc.
reviews
140
torrent contents

Mummy Edit-Junior Acrobat Vol 14-03.avi torrent

Mummy Edit-Junior Acrobat Vol 14-03.avi94.23 Mb torrent search

Sample info:
Duration: 00:06:23.45, start: 0.000000, bitrate: 2061 kb/s
Stream #0.0: Video: mpeg4, yuv420p, 768x512 [PAR 1:1 DAR 3:2], 29.97 tb(r)
Stream #0.1: Audio: pcm_s16le, 24000 Hz, stereo, 768 kb/s
 

related search cloud

 acrobat  junior  edit  mummy

Torrent Anonymous Download