Torrent Search | Torrent Meta Search | Widgets

Artur i mest Urdalaka (2009) RUS BDRip XviD AC3 HQCLUB

1.45 Gb
found 4 years ago
▲ seeders: 6 ▼ leechers:0
your vote:
real:
fake:
Direct Download
THANK YOU
download torrent
  Direct Downloadsponsored

Artur i mest Urdalaka (2009) RUS BDRip XviD AC3 HQCLUB torrent

Information about the torrent Artur i mest Urdalaka (2009) RUS BDRip XviD AC3 HQCLUB. Seeders, leechers and torrent status is updated several times per day.

If you want to download the video torrent Artur i mest Urdalaka (2009) RUS BDRip XviD AC3 HQCLUB you will need a torrent client.

Torrent Metasearch.

tracker
seeders
leechers
↓ torrent client compatible list

↑ hide torrent client compatible list

Help torrentproject.com to stay alive .
Add links of torrentproject.com in your favorite forum, blog, youtube, facebook, twitter etc.
reviews
140
torrent contents

Artur.i.mest.Urdalaka.2009.RUS.BDRip.XviD.AC3.-HQCLUB.avi torrent

Artur.i.mest.Urdalaka.2009.RUS.BDRip.XviD.AC3.-HQCLUB.avi1.45 Gb torrent search

Sample info:
Duration: 01:33:51.99, start: 0.000000, bitrate: 2213 kb/s
Stream #0.0: Video: mpeg4, yuv420p, 720x304 [PAR 1:1 DAR 45:19], 23.98 tb(r)
Stream #0.1: Audio: ac3, 48000 Hz, 5:1, 384 kb/s
screenshots
Artur i mest Urdalaka torrent screenshot 1E88064276185E66549032C3E175DEF27A953E8D Artur i mest Urdalaka  torrent screenshot 1e88064276185e66549032c3e175def27a953e8d torrent Artur i mest Urdalaka
Artur.i.mest.Urdalaka.2009.RUS.BDRip.XviD.AC3.-HQCLUB.avi images are auto generated please report any inapropriate images
 

related search cloud

 xvid  hqclub  bdrip  urdalaka  mest  artur