Torrent Search | Torrent Meta Search | Widgets

Roped And Raped

64.48 Mb
found 3 years ago
▲ seeders: 0 ▼ leechers:5
your vote:
real:
fake:
Direct Download
THANK YOU
download torrent
  Direct Downloadsponsored

Roped And Raped torrent

Information about the torrent Roped And Raped. Seeders, leechers and torrent status is updated several times per day.

If you want to download the video torrent Roped And Raped you will need a torrent client.

Torrent Metasearch.

tracker
seeders
leechers
↓ torrent client compatible list

↑ hide torrent client compatible list

Help torrentproject.com to stay alive .
Add links of torrentproject.com in your favorite forum, blog, youtube, facebook, twitter etc.
reviews
140
torrent contents

Roped And Raped.mpg torrent

Roped And Raped.mpg64.48 Mb torrent search

Sample info:
Duration: 00:06:22.81, start: 0.695500, bitrate: 1412 kb/s
Stream #0.0[0x1e0]: Video: mpeg1video, yuv420p, 352x240 [PAR 200:219 DAR 880:657], 1151 kb/s, 29.97 fps, 29.97 tbr, 90k tbn, 29.97 tbc
Stream #0.1[0x1c0]: Audio: mp2, 44100 Hz, 2 channels, s16, 224 kb/s
 

related search cloud

 raped  roped

Torrent Anonymous Download