Torrent Search | Torrent Meta Search | Widgets

Kannada actress raped hot video

17.06 Mb
found 1 year ago
▲ seeders: 13 ▼ leechers:5
your vote:
real:
fake:
Direct Download
THANK YOU
download torrent
  Direct Downloadsponsored

Kannada actress raped hot video torrent

Information about the torrent Kannada actress raped hot video. Seeders, leechers and torrent status is updated everyday.

If you want to download the video torrent Kannada actress raped hot video you will need a torrent client.

Torrent Metasearch.

tracker
seeders
leechers
↓ torrent client compatible list

↑ hide torrent client compatible list

Help torrentproject.com to stay alive .
Add links of torrentproject.com in your favorite forum, blog, youtube, facebook, twitter etc.
reviews
140
torrent contents

Kannada_actress_raped_hot_video Desisexblog.net.wmv torrent

Kannada_actress_raped_hot_video Desisexblog.net.wmv17.06 Mb torrent search

Sample info:
Duration: 00:02:33.51, start: 0.000000, bitrate: 932 kb/s
Stream #0.0(eng): Audio: wmav2, 48000 Hz, 2 channels, s16, 192 kb/s
Stream #0.1(eng): Video: wmv3 (Main), yuv420p, 368x272, 813 kb/s, 29.97 tbr, 1k tbn, 1k tbc
screenshots
Kannada actress raped hot torrent screenshot 1F2AF32366D3C517AB7E25A547CA6B46DF75B84D Kannada actress raped hot  torrent screenshot 1f2af32366d3c517ab7e25a547ca6b46df75b84d torrent Kannada actress raped hot
Kannada_actress_raped_hot_video Desisexblog.net.wmv images are auto generated please report any inapropriate images
 

related search cloud

 desisexblog  video  raped  actre  kannada