Torrent Search | Torrent Meta Search | Widgets

Les Campeuses De Saint Tropez

       
840.91 Mb
found 3 years ago
▲ seeders: 3 ▼ leechers:4
your vote:
real:
fake:
Direct Download
THANK YOU
download torrent
  Direct Downloadsponsored

Les Campeuses De Saint Tropez torrent

Information about the torrent Les Campeuses De Saint Tropez. Seeders, leechers and torrent status is updated everyday.

If you want to download the video torrent Les Campeuses De Saint Tropez you will need a torrent client.

Torrent Metasearch.

.

tracker
seeders
leechers
↓ torrent client compatible list

↑ hide torrent client compatible list

Help torrentproject.com to stay alive .
Add links of torrentproject.com in your favorite forum, blog, youtube, facebook, twitter etc.
reviews
140
torrent contents

Les_Campeuses_De_Saint_Tropez.avi torrent

Les_Campeuses_De_Saint_Tropez.avi840.91 Mb torrent search

Sample info:
Duration: 01:31:03.80, start: 0.000000, bitrate: 1291 kb/s
Stream #0.0: Video: mpeg4, yuv420p, 544x400 [PAR 1:1 DAR 34:25], PAR 204800:234481 DAR 16384:13793, 25 tbr, 25 tbn, 25 tbc
Stream #0.1: Audio: mp3, 44100 Hz, 2 channels, s16, 128 kb/s
screenshots
Les Campeuses De Saint torrent screenshot 1FAA42CB5A728A6C2BE722E5200386D83502B438 Les Campeuses De Saint  torrent screenshot 1faa42cb5a728a6c2be722e5200386d83502b438 torrent Les Campeuses De Saint
Les_Campeuses_De_Saint_Tropez.avi images are auto generated please report any inapropriate images
 

related search cloud

 tropez  saint  campeuses