Torrent Search | Torrent Meta Search | Widgets

Szybcy i Wściekli

7.77 Gb
found 3 years ago
▲ seeders: 9 ▼ leechers:1
your vote:
real:
fake:
Direct Download
THANK YOU
download torrent
  Direct Downloadsponsored

Szybcy i Wściekli torrent

Information about the torrent Szybcy i Wściekli. Seeders, leechers and torrent status is updated several times per day.

If you want to download the video torrent Szybcy i Wściekli you will need a torrent client.

Torrent Metasearch.

tracker
seeders
leechers
↓ torrent client compatible list

↑ hide torrent client compatible list

Help torrentproject.com to stay alive .
Add links of torrentproject.com in your favorite forum, blog, youtube, facebook, twitter etc.
reviews
140
torrent contents

Szybcy i Wściekli torrent

Szybcy i Wściekli
Szybcy i Wściekli Tokio Drift.avi2.52 Gb torrent search
Szybcy i Wściekli.avi2.54 Gb torrent search
Za Szybcy Za Wściekli.avi2.71 Gb torrent search

Sample info:
Duration: 01:43:16.64, start: 0.000000, bitrate: 3761 kb/s
Stream #0.0: Video: mpeg4, yuv420p, 1280x544 [PAR 1:1 DAR 40:17], 25.00 tb(r)
Stream #0.1: Audio: mp3, 44100 Hz, stereo, 256 kb/s
you may be interested in these torrents seeders leechers size found
Szybcy i wściekli 6 2013 58 1 696.73 Mb 10 months ago

Szybcy.i.wsciekli.6.2013.PL.THEATRiCAL.BDRip.XviD-BiDA.avi PRZECZYTAJ!!! CIEKAWE CO ZROBISZtxt.


Szybcy i wściekli 6 Fast and Furious 6 (2013) DVDRip XviD AC3 5 1 Lektor PL     17 5 1.66 Gb 10 months ago

Szybcy i wściekli 6 - Fast and Furious 6 (2013).avi


Szybcy i Wściekli 5 PL 2011 miniHD Leon 345 15 3 2.05 Gb 3 months ago

Szybcy.i.Wściekli.5.PL_2011_miniHD(Leon 345).mp4 szybcy-i-


Szybcy i Wściekli 6 Fast And Furious 6 (2013) DVDRip XviD AC3 MAXX Lektor rmvb 13 2 454.05 Mb 10 months ago

Szybcy i Wściekli 6 Fast And Furious 6 (2013)[DVDRip.XviD.AC3-MAXX][Lektor].rmvb


Szybcy I Wściekli 6 Furious 6 (2013) PL DVDRip XviD AC3 RBB90 12 2 1.36 Gb 10 months ago

Szybcy I Wściekli 6.[Furious 6].(2013).PL.DVDRip.XviD.AC3-RBB90.avi


Szybcy i wściekli Tokio Drift 2006 miniHD PL Leon 345 12 3 1.83 Gb 5 months ago

Szybcy.i.wściekli.Tokio.Drift_2006_miniHD(Leon 345).mp4


Szybcy i Wściekli 2001 miniHD Leon 345 12 3 1.83 Gb 6 months ago

Szybcy.i.Wściekli.2001_miniHD(Leon 345).mp4 big_1_1105c965e0e0.


szybcy i wściekli 10 0 357.99 Mb 4 months ago

szybcy i wściekli.rmvb Pobrano z torrenty.org.url


Szybcy i Wściekli I IV 2001 2009     9 3 3.4 Gb 3 years ago

3. Szybcy i wściekli - Tokio Drift (2006) [CD2] [DVDRip.XviD-Zryty TB] [Lektor PL].avi


 

related search cloud

 szybcy  ciekli  drift  tokio