Torrent Search | Torrent Meta Search | Widgets

Szybcy i Wściekli

7.77 Gb
found 3 years ago
▲ seeders: 1 ▼ leechers:2
your vote:
real:
fake:
Direct Download
THANK YOU
download torrent
  Direct Downloadsponsored

Szybcy i Wściekli torrent

Information about the torrent Szybcy i Wściekli. Seeders, leechers and torrent status is updated several times per day.

If you want to download the video torrent Szybcy i Wściekli you will need a torrent client.

Torrent Metasearch.

tracker
seeders
leechers
↓ torrent client compatible list

↑ hide torrent client compatible list

Help torrentproject.com to stay alive .
Add links of torrentproject.com in your favorite forum, blog, youtube, facebook, twitter etc.
reviews
140
torrent contents

Szybcy i Wściekli torrent

Szybcy i Wściekli
Szybcy i Wściekli Tokio Drift.avi2.52 Gb torrent search
Szybcy i Wściekli.avi2.54 Gb torrent search
Za Szybcy Za Wściekli.avi2.71 Gb torrent search

Sample info:
Duration: 01:43:16.64, start: 0.000000, bitrate: 3761 kb/s
Stream #0.0: Video: mpeg4, yuv420p, 1280x544 [PAR 1:1 DAR 40:17], 25.00 tb(r)
Stream #0.1: Audio: mp3, 44100 Hz, stereo, 256 kb/s
 

related search cloud

 szybcy  ciekli  drift  tokio

Torrent Anonymous Download