Torrent Search | Torrent Meta Search | Widgets

Teenage Mutant Ninja Turtles Season 2 (1988) DVDRip Eng XGOXDiEXXX

1.9 Gb
found 4 years ago
▲ seeders: 6 ▼ leechers:3
your vote:
real:
fake:
Direct Download
THANK YOU
download torrent
  Direct Downloadsponsored

Teenage Mutant Ninja Turtles Season 2 (1988) DVDRip Eng XGOXDiEXXX torrent

Information about the torrent Teenage Mutant Ninja Turtles Season 2 (1988) DVDRip Eng XGOXDiEXXX. Seeders, leechers and torrent status is updated several times per day.

If you want to download the tv torrent Teenage Mutant Ninja Turtles Season 2 (1988) DVDRip Eng XGOXDiEXXX you will need a torrent client.

Torrent Metasearch.

No trackers with seeders or leechers have been found, this doesn't mean that the torrent Teenage Mutant Ninja Turtles Season 2 (1988) DVDRip Eng XGOXDiEXXX is dead
Help torrentproject.com to stay alive .
Add links of torrentproject.com in your favorite forum, blog, youtube, facebook, twitter etc.
reviews
140
torrent contents

Teenage.Mutant.Ninja.Turtles.Season.2[1988]DVDRip[Eng]-XGOXDiEXXX torrent

Teenage.Mutant.Ninja.Turtles.Season.2[1988]DVDRip[Eng]-XGOXDiEXXX
Cover.jpg40.7 Kb torrent search
Episode 1 Return of the Shredder.avi149.74 Mb torrent search
Episode 10 New York's Shiniest.avi149.99 Mb torrent search
Episode 11 Teenagers from Dimension X.avi149.8 Mb torrent search
Episode 12 The Catwoman from Channel Six.avi149.96 Mb torrent search
Episode 13 Return of the Technodrome.avi150.07 Mb torrent search
Episode 2 The Incredible Shrinking Turtles.avi149.98 Mb torrent search
Episode 3 It Came from Beneath the Sewers.avi150.01 Mb torrent search
Episode 4 The Mean Machines.avi149.76 Mb torrent search
Episode 5 Curse of the Evil Eye.avi149.32 Mb torrent search
Episode 6 Case of the Killer Pizzas.avi149.94 Mb torrent search
Episode 7 Enter The Fly.avi149.67 Mb torrent search
Episode 8 Invasion of the Punk Frogs.avi149.74 Mb torrent search
Episode 9 Splinter No More.avi149.63 Mb torrent search
Teenage.Mutant.Ninja.Turtles.Season.2[1988]DVDRip[Eng]-XGOXDiEXXX.txt452 bytes torrent search
Torrent_downloaded_from_Demonoid.com.txt47 bytes torrent search

Sample info:
Duration: 00:22:18.04, start: 0.000000, bitrate: 940 kb/s
Stream #0.0: Video: mpeg4, yuv420p, 320x240 [PAR 1:1 DAR 4:3], 29.97 fps, 29.97 tbr, 29.97 tbn, 29.97 tbc
Stream #0.1: Audio: mp3, 48000 Hz, 2 channels, s16, 128 kb/s
screenshots
Teenage Mutant Ninja Turtles torrent screenshot 1FF3D21B5DF2F43EEF4D9E63A8565B0200BC71E0 Teenage Mutant Ninja Turtles  torrent screenshot 1ff3d21b5df2f43eef4d9e63a8565b0200bc71e0 torrent Teenage Mutant Ninja Turtles
Teenage.Mutant.Ninja.Turtles.Season.2[1988]DVDRip[Eng]-XGOXDiEXXX images are auto generated please report any inapropriate images
 

related search cloud

 episode  turtles  return  teenage  xgoxdiexxx  dvdrip  mutant  ninja  season  enter