Torrent Search | Torrent Meta Search | Widgets

Nuru Massage Kortney Kane You Know The Drill

       
348.89 Mb
found 3 years ago
▲ seeders: 1 ▼ leechers:2
your vote:
real:
fake:
Direct Download
THANK YOU
download torrent
  Direct Downloadsponsored

Nuru Massage Kortney Kane You Know The Drill torrent

Information about the torrent Nuru Massage Kortney Kane You Know The Drill. Seeders, leechers and torrent status is updated everyday.

If you want to download the video torrent Nuru Massage Kortney Kane You Know The Drill you will need a torrent client.

Torrent Metasearch.

Torrent verified by kat.ph.

tracker
seeders
leechers
↓ torrent client compatible list

↑ hide torrent client compatible list

Help torrentproject.com to stay alive .
Add links of torrentproject.com in your favorite forum, blog, youtube, facebook, twitter etc.
reviews
140
torrent contents

Nuru Massage - Kortney Kane - You Know The Drill torrent

Nuru Massage - Kortney Kane - You Know The Drill
Torrent downloaded from rarbg.com.txt33 bytes torrent search
kortney322.wmv348.89 Mb torrent search

Sample info:
Duration: 00:15:40.07, start: 0.000000, bitrate: 3113 kb/s
Stream #0.0(eng): Audio: wmav2, 48000 Hz, 2 channels, s16, 128 kb/s
Stream #0.1(eng): Video: wmv3 (Main), yuv420p, 720x480, 3000 kb/s, PAR 360:427 DAR 540:427, 29.97 tbr, 1k tbn, 1k tbc
screenshots
Nuru Massage Kortney Kane torrent screenshot 20645DD2C1F3219AC1F7DCFC7BBFB665CBFB1041 Nuru Massage Kortney Kane  torrent screenshot 20645dd2c1f3219ac1f7dcfc7bbfb665cbfb1041 torrent Nuru Massage Kortney Kane
Nuru Massage - Kortney Kane - You Know The Drill images are auto generated please report any inapropriate images
 

related search cloud

 kortney  torrent  downloaded  drill  rarbg  know  maage  kane  nuru