Torrent Search | Torrent Meta Search | Widgets

Hanna Super Squirt

       
183.2 Mb
found 2 years ago
▲ seeders: 1 ▼ leechers:1
your vote:
real:
fake:
Direct Download
THANK YOU
download torrent
  Direct Downloadsponsored

Hanna Super Squirt torrent

Information about the torrent Hanna Super Squirt. Seeders, leechers and torrent status is updated several times per day.

If you want to download the video torrent Hanna Super Squirt you will need a torrent client.

Torrent Metasearch.

Torrent verified by kat.ph.

tracker
seeders
leechers
↓ torrent client compatible list

↑ hide torrent client compatible list

Help torrentproject.com to stay alive .
Add links of torrentproject.com in your favorite forum, blog, youtube, facebook, twitter etc.
reviews
140
torrent contents

18OnlyGirls.com - Hanna - Super Squirt.avi torrent

18OnlyGirls.com - Hanna - Super Squirt.avi183.2 Mb torrent search

Sample info:
Duration: 00:19:02.84, start: 0.000000, bitrate: 1344 kb/s
Stream #0.0: Video: h264, yuv420p, 960x540 [PAR 1:1 DAR 16:9], 29.97 fps, 29.97 tbr, 29.97 tbn, 59.94 tbc
Stream #0.1: Audio: mp3, 44100 Hz, 2 channels, s16, 128 kb/s
screenshots
Hanna Super Squirt torrent screenshot 213B0BD18E9CBE408D688F6BB06788BA4D7D6295 Hanna Super Squirt torrent screenshot 213b0bd18e9cbe408d688f6bb06788ba4d7d6295 torrent Hanna Super Squirt
18OnlyGirls.com - Hanna - Super Squirt.avi images are auto generated please report any inapropriate images
 

related search cloud

 squirt  super  hanna  onlygirls

Torrent Anonymous Download