Torrent Search | Torrent Meta Search | Widgets

Reality Kings Money Talks Real Reservations

717.61 Mb
found 1 year ago
▲ seeders: 10 ▼ leechers:1
your vote:
real:
fake:
Direct Download
THANK YOU
download torrent
  Direct Downloadsponsored

Reality Kings Money Talks Real Reservations torrent

Information about the torrent Reality Kings Money Talks Real Reservations. Seeders, leechers and torrent status is updated several times per day.

If you want to download the video torrent Reality Kings Money Talks Real Reservations you will need a torrent client.

Torrent Metasearch.

tracker
seeders
leechers
↓ torrent client compatible list

↑ hide torrent client compatible list

Help torrentproject.com to stay alive .
Add links of torrentproject.com in your favorite forum, blog, youtube, facebook, twitter etc.
reviews
140
torrent contents

Reality Kings - Money Talks - Real Reservations.mp4 torrent

Reality Kings - Money Talks - Real Reservations.mp4717.61 Mb torrent search

Sample info:
Duration: 01:05:09.30, start: 0.000000, bitrate: 1539 kb/s
Stream #0.0	: Video: h264 (Main), yuv420p, 768x432 [PAR 1:1 DAR 16:9], 1503 kb/s, 30 fps, 30 tbr, 600 tbn, 60 tbc
creation_time	: 2010-05-07 04:54:49
Stream #0.1	: Audio: aac, 32000 Hz, mono, s16, 32 kb/s
creation_time	: 2010-05-07 04:54:49
screenshots
Reality Kings Money Talks torrent screenshot 21761122651E1A1AFFA2AA67F91AF77BCC83A71D Reality Kings Money Talks  torrent screenshot 21761122651e1a1affa2aa67f91af77bcc83a71d torrent Reality Kings Money Talks
Reality Kings - Money Talks - Real Reservations.mp4 images are auto generated please report any inapropriate images
 

related search cloud

 real  reservations  talks  money  kings  reality