Torrent Search | Torrent Meta Search | Widgets

Klixen sixty nine pleasure

       
222.38 Mb
found 4 years ago
▲ seeders: 5 ▼ leechers:1
your vote:
real:
fake:
Direct Download
THANK YOU
download torrent
  Direct Downloadsponsored

Klixen sixty nine pleasure torrent

Information about the torrent Klixen sixty nine pleasure. Seeders, leechers and torrent status is updated several times per day.

If you want to download the video torrent Klixen sixty nine pleasure you will need a torrent client.

Torrent Metasearch.

Torrent verified by kat.ph.

tracker
seeders
leechers
↓ torrent client compatible list

↑ hide torrent client compatible list

Help torrentproject.com to stay alive .
Add links of torrentproject.com in your favorite forum, blog, youtube, facebook, twitter etc.
reviews
140
torrent contents

Klixen - sixty-nine pleasure torrent

Klixen - sixty-nine pleasure
Klixen - sixty-nine pleasure part A.wmv94.06 Mb torrent search
Klixen - sixty-nine pleasure part B.wmv128.32 Mb torrent search

Sample info:
Duration: 00:10:30.98, start: 0.000000, bitrate: 1705 kb/s
Stream #0.0(ger): Audio: wmav2, 48000 Hz, 2 channels, s16, 160 kb/s
Stream #0.1(ger): Video: wmv3 (Main), yuv420p, 1280x720, 1532 kb/s, 29.97 tbr, 1k tbn, 1k tbc
screenshots
Klixen sixty nine pleasure torrent screenshot 21DFA7249D88ADB37DB04DBF78EB74EDB49E8485 Klixen sixty nine pleasure torrent screenshot 21dfa7249d88adb37db04dbf78eb74edb49e8485 torrent Klixen sixty nine pleasure
Klixen - sixty-nine pleasure images are auto generated please report any inapropriate images
 

related search cloud

 pleasure  klixen  nine  sixty  part