Torrent Search | Torrent Meta Search | Widgets

Wow Pinay seX scandal vol 3 mangkanor

28.55 Mb
found 2 years ago
▲ seeders: 10 ▼ leechers:3
your vote:
real:
fake:
Direct Download
THANK YOU
download torrent
  Direct Downloadsponsored

Wow Pinay seX scandal vol 3 mangkanor torrent

Information about the torrent Wow Pinay seX scandal vol 3 mangkanor. Seeders, leechers and torrent status is updated several times per day.

If you want to download the video torrent Wow Pinay seX scandal vol 3 mangkanor you will need a torrent client.

Torrent Metasearch.

tracker
seeders
leechers
↓ torrent client compatible list

↑ hide torrent client compatible list

Help torrentproject.com to stay alive .
Add links of torrentproject.com in your favorite forum, blog, youtube, facebook, twitter etc.
reviews
140
torrent contents

Wow Pinay(seX scandal vol.3)_mangkanor torrent

Wow Pinay(seX scandal vol.3)_mangkanor
Wow Pinay(seX scandal vol.3)_mangkanor.avi26.85 Mb torrent search
TOPSIDER (PINOY)movie sharing join us on Facebook.avi1.7 Mb torrent search

Sample info:
Duration: 00:04:36.03, start: 0.000000, bitrate: 816 kb/s
Stream #0.0: Video: mpeg4 (Simple Profile), yuv420p, 352x240 [PAR 6:5 DAR 44:25], 29.97 fps, 29.97 tbr, 29.97 tbn, 2997 tbc
Stream #0.1: Audio: mp3, 44100 Hz, stereo, s16, 256 kb/s
screenshots
Wow Pinay seX scandal torrent screenshot 21FB80DEA525F59070F7883843EFB1B95C73440F Wow Pinay seX scandal  torrent screenshot 21fb80dea525f59070f7883843efb1b95c73440f torrent Wow Pinay seX scandal
Wow Pinay(seX scandal vol.3)_mangkanor images are auto generated please report any inapropriate images
 

related search cloud

 pinay  mangkanor  scandal  join  facebook  sharing  pinoy  topsider  movie