Torrent Search | Torrent Meta Search | Widgets

DivX ITA Walt Disney Dumbo

551.43 Mb
found 4 years ago
▲ seeders: 12 ▼ leechers:1
your vote:
real:
fake:
Direct Download
THANK YOU
download torrent
  Direct Downloadsponsored

DivX ITA Walt Disney Dumbo torrent

Information about the torrent DivX ITA Walt Disney Dumbo. A torrent file stores metadata that can be used from a BitTorrent client.

If you want to download the video torrent DivX ITA Walt Disney Dumbo you will need a torrent client.

Torrent Metasearch.

tracker
seeders
leechers
↓ torrent client compatible list

↑ hide torrent client compatible list

Help torrentproject.com to stay alive .
Add links of torrentproject.com in your favorite forum, blog, youtube, facebook, twitter etc.
reviews
140
torrent contents

[DivX - ITA] Walt Disney - Dumbo.avi torrent

[DivX - ITA] Walt Disney - Dumbo.avi551.43 Mb torrent search

Sample info:
Duration: 01:01:09.64, start: 0.000000, bitrate: 1260 kb/s
Stream #0.0: Video: msmpeg4, yuv420p, 640x480, 25.00 tb(r)
Stream #0.1: Audio: mp3, 48000 Hz, stereo, 128 kb/s
screenshots
DivX ITA Walt Disney torrent screenshot 2406165E6D0B9CE8B4E89FC6353C96F6A6C05DB4 DivX ITA Walt Disney  torrent screenshot 2406165e6d0b9ce8b4e89fc6353c96f6a6c05db4 torrent DivX ITA Walt Disney
[DivX - ITA] Walt Disney - Dumbo.avi images are auto generated please report any inapropriate images
 

related search cloud

 dumbo  disney  walt  divx