Torrent Search | Torrent Meta Search | Widgets

Brasileirinhas Garotas Turbinadas

       
849 Mb
found 2 years ago
▲ seeders: 6 ▼ leechers:3
your vote:
real:
fake:
Direct Download
THANK YOU
download torrent
  Direct Downloadsponsored

Brasileirinhas Garotas Turbinadas torrent

Information about the torrent Brasileirinhas Garotas Turbinadas. Seeders, leechers and torrent status is updated several times per day.

If you want to download the video torrent Brasileirinhas Garotas Turbinadas you will need a torrent client.

Torrent Metasearch.

Torrent verified by kat.ph.

tracker
seeders
leechers
↓ torrent client compatible list

↑ hide torrent client compatible list

Help torrentproject.com to stay alive .
Add links of torrentproject.com in your favorite forum, blog, youtube, facebook, twitter etc.
reviews
140
torrent contents

Brasileirinhas--Garotas Turbinadas.avi torrent

Brasileirinhas--Garotas Turbinadas.avi849 Mb torrent search

Sample info:
Duration: 01:51:03.36, start: 0.000000, bitrate: 1068 kb/s
Stream #0.0: Video: mpeg4, yuv420p, 528x384 [PAR 1:1 DAR 11:8], 23.98 tbr, 23.98 tbn, 23.98 tbc
Stream #0.1: Audio: mp3, 48000 Hz, 2 channels, s16, 128 kb/s
screenshots
Brasileirinhas Garotas Turbinadas torrent screenshot 243AE2F0A97D24E533B6509B6F55531C7DC74F62 Brasileirinhas Garotas Turbinadas torrent screenshot 243ae2f0a97d24e533b6509b6f55531c7dc74f62 torrent Brasileirinhas Garotas Turbinadas
Brasileirinhas--Garotas Turbinadas.avi images are auto generated please report any inapropriate images
 

related search cloud

 turbinadas  garotas  brasileirinhas

Torrent Anonymous Download