Torrent Search | Torrent Meta Search | Widgets

魔穗字幕组 Queen Bee 絶頂ロケット 発射2発目

331.67 Mb
found 9 months ago
▲ seeders: 3 ▼ leechers:1
your vote:
real:
fake:
Direct Download
THANK YOU
download torrent
  Direct Downloadsponsored

魔穗字幕组 Queen Bee 絶頂ロケット 発射2発目 torrent

Information about the torrent 魔穗字幕组 Queen Bee 絶頂ロケット 発射2発目. Seeders, leechers and torrent status is updated several times per day.

If you want to download the video torrent 魔穗字幕组 Queen Bee 絶頂ロケット 発射2発目 you will need a torrent client.

Torrent Metasearch.

tracker
seeders
leechers
↓ torrent client compatible list

↑ hide torrent client compatible list

Help torrentproject.com to stay alive .
Add links of torrentproject.com in your favorite forum, blog, youtube, facebook, twitter etc.
reviews
140
torrent contents

[魔穗字幕组][Queen Bee]絶頂ロケット 発射2発目 torrent

[魔穗字幕组][Queen Bee]絶頂ロケット 発射2発目
 [魔穗字幕组][Queen Bee]絶頂ロケット 発射1発目
[Maho.sub][Queen Bee]絶頂ロケット 発射1発目.ass18.67 Kb torrent search

[魔穗字幕组][Queen Bee]絶頂ロケット 発射2発目[魔穗字幕组][Queen Bee]絶頂ロケット 発射2発目
 [魔穗字幕组][Queen Bee]絶頂ロケット 発射1発目
[Maho.sub][Queen Bee]絶頂ロケット 発射1発目.mkv50.13 Mb torrent search

[魔穗字幕组][Queen Bee]絶頂ロケット 発射2発目[魔穗字幕组][Queen Bee]絶頂ロケット 発射2発目
 [魔穗字幕组][Queen Bee]絶頂ロケット 発射1発目
絶頂ロケット 発射1発目.jpg178.06 Kb torrent search

[魔穗字幕组][Queen Bee]絶頂ロケット 発射2発目
[Maho.sub][Queen Bee]絶頂ロケット 発射2発目.ass17.98 Kb torrent search
[Maho.sub][Queen Bee]絶頂ロケット 発射2発目.mkv77.44 Mb torrent search
[Maho.sub][Queen Bee]絶頂ロケット 発射2発目[PSP].mp485.54 Mb torrent search
[たろプン] 猥褻ミサイル.7z117.09 Mb torrent search
絶頂ロケット 発射2発目.jpg175.48 Kb torrent search

Sample info:
Duration: 00:23:09.56, start: 0.000000, bitrate: 516 kb/s
Stream #0:0	: Video: h264 (Main) (avc1 / 0x31637661), yuv420p, 720x480 [SAR 32:27 DAR 16:9], 409 kb/s, SAR 71:60 DAR 71:40, 28.40 fps, 29.97 tbr, 28426 tbn, 56.80 tbc
creation_time	: 1970-01-01 00:00:00
handler_name	: VideoHandler
Stream #0:1	: Audio: aac (mp4a / 0x6134706D), 48000 Hz, stereo, s16, 98 kb/s
creation_time	: 1970-01-01 00:00:00
handler_name	: SoundHandler
screenshots
魔穗字幕组 Queen Bee 絶頂ロケット torrent screenshot 243F54459C5AEB40CBA08F5499D5530E48F690AD 魔穗字幕组 Queen Bee 絶頂ロケット  torrent screenshot 243f54459c5aeb40cba08f5499d5530e48f690ad torrent 魔穗字幕组 Queen Bee 絶頂ロケット
[魔穗字幕组][Queen Bee]絶頂ロケット 発射2発目 images are auto generated please report any inapropriate images
 

related search cloud

 queen  maho