Torrent Search | Torrent Meta Search | Widgets

Maria Ozawa Uncensored TRP052 XXX

       
728.28 Mb
found 3 years ago
▲ seeders: 2 ▼ leechers:1
your vote:
real:
fake:
Direct Download
THANK YOU
download torrent
  Direct Downloadsponsored

Maria Ozawa Uncensored TRP052 XXX torrent

Information about the torrent Maria Ozawa Uncensored TRP052 XXX. Seeders, leechers and torrent status is updated several times per day.

If you want to download the adult torrent Maria Ozawa Uncensored TRP052 XXX you will need a torrent client.

Torrent Metasearch.

Torrent verified by kat.ph.

tracker
seeders
leechers
↓ torrent client compatible list

↑ hide torrent client compatible list

Help torrentproject.com to stay alive .
Add links of torrentproject.com in your favorite forum, blog, youtube, facebook, twitter etc.
reviews
140
torrent contents

Maria.Ozawa.Uncensored.TRP052.XXX torrent

Maria.Ozawa.Uncensored.TRP052.XXX
DVD1TRP-052.jpg179.65 Kb torrent search
DVD1TRP-052A.jpg2.81 Mb torrent search
TRP-052.XviD.avi725.3 Mb torrent search

Sample info:
Duration: 01:31:59.21, start: 0.000000, bitrate: 1102 kb/s
Stream #0.0: Video: mpeg4 (Advanced Simple Profile), yuv420p, 640x480 [PAR 1:1 DAR 4:3], 29.97 tbr, 29.97 tbn, 29.97 tbc
Stream #0.1: Audio: mp3, 48000 Hz, stereo, s16, 96 kb/s
screenshots
Maria Ozawa Uncensored TRP052 torrent screenshot 245F82B3E19EFA3918DB6AE2E6E34AA50A54B739 Maria Ozawa Uncensored TRP052  torrent screenshot 245f82b3e19efa3918db6ae2e6e34aa50a54b739 torrent Maria Ozawa Uncensored TRP052
Maria.Ozawa.Uncensored.TRP052.XXX images are auto generated please report any inapropriate images
 

related search cloud

 xvid  uncensored  ozawa  maria

Torrent Anonymous Download