Torrent Search | Torrent Meta Search | Widgets

The Blues Brothers (1980) Swesub DVDRip XviD Haggebulle

       
1.37 Gb
found 2 years ago
▲ seeders: 2 ▼ leechers:1
your vote:
real:
fake:
Direct Download
THANK YOU
download torrent
  Direct Downloadsponsored

The Blues Brothers (1980) Swesub DVDRip XviD Haggebulle torrent

Information about the torrent The Blues Brothers (1980) Swesub DVDRip XviD Haggebulle. Seeders, leechers and torrent status is updated several times per day.

If you want to download the dvdrip torrent The Blues Brothers (1980) Swesub DVDRip XviD Haggebulle you will need a torrent client.

Torrent Metasearch.

.

tracker
seeders
leechers
↓ torrent client compatible list

↑ hide torrent client compatible list

Help torrentproject.com to stay alive .
Add links of torrentproject.com in your favorite forum, blog, youtube, facebook, twitter etc.
reviews
140
torrent contents

The.Blues.Brothers.1980.Swesub.DVDrip.Xvid-Haggebulle torrent

The.Blues.Brothers.1980.Swesub.DVDrip.Xvid-Haggebulle
The.Blues.Brothers.1980.Swesub.DVDrip.Xvid-Haggebulle.avi1.37 Gb torrent search
Seeda efter dej - Som TACK!.txt32 bytes torrent search

Sample info:
Duration: 02:07:26.96, start: 0.000000, bitrate: 1538 kb/s
Stream #0.0: Video: mpeg4, yuv420p, 720x388 [PAR 1:1 DAR 180:97], 25 tbr, 25 tbn, 25 tbc
Stream #0.1: Audio: ac3, 48000 Hz, stereo, s16, 192 kb/s
screenshots
The Blues Brothers 1980 torrent screenshot 2481F4036610C9351078AFA5B35AD65135E659A1 The Blues Brothers 1980  torrent screenshot 2481f4036610c9351078afa5b35ad65135e659a1 torrent The Blues Brothers 1980
The.Blues.Brothers.1980.Swesub.DVDrip.Xvid-Haggebulle images are auto generated please report any inapropriate images
 

related search cloud

 blues  haggebulle  dvdrip  xvid  swesub  brothers  tack  seeda  efter