Torrent Search | Torrent Meta Search | Widgets

Fist Anal Hors Limites 2

615.51 Mb
found 4 years ago
▲ seeders: 2 ▼ leechers:1
your vote:
real:
fake:
Direct Download
THANK YOU
download torrent
  Direct Downloadsponsored

Fist Anal Hors Limites 2 torrent

Information about the torrent Fist Anal Hors Limites 2. A torrent file stores metadata that can be used from a BitTorrent client.

If you want to download the anal torrent Fist Anal Hors Limites 2 you will need a torrent client.

Torrent Metasearch.

tracker
seeders
leechers
↓ torrent client compatible list

↑ hide torrent client compatible list

Help torrentproject.com to stay alive .
Add links of torrentproject.com in your favorite forum, blog, youtube, facebook, twitter etc.
reviews
140
torrent contents

Fist Anal Hors Limites 2.avi torrent

Fist Anal Hors Limites 2.avi615.51 Mb torrent search

Sample info:
Duration: 01:26:11.00, start: 0.000000, bitrate: 998 kb/s
Stream #0.0: Video: mpeg4, yuv420p, 720x480 [PAR 1:1 DAR 3:2], 29.97 tb(r)
Stream #0.1: Audio: mp3, 44100 Hz, stereo, 192 kb/s
screenshots
Fist Anal Hors Limites torrent screenshot 250FEBC7257968F9445B5BA2AFD12347DD6A99EC Fist Anal Hors Limites  torrent screenshot 250febc7257968f9445b5ba2afd12347dd6a99ec torrent Fist Anal Hors Limites
Fist Anal Hors Limites 2.avi images are auto generated please report any inapropriate images
 

related search cloud

 limites  hors  anal  fist