Torrent Search | Torrent Meta Search | Widgets

CzechAV CzechCasting Petra 720p

544.06 Mb
found 2 years ago
▲ seeders: 1 ▼ leechers:1
your vote:
real:
fake:
Direct Download
THANK YOU
download torrent
  Direct Downloadsponsored

CzechAV CzechCasting Petra 720p torrent

Information about the torrent CzechAV CzechCasting Petra 720p. Seeders, leechers and torrent status is updated several times per day.

If you want to download the hdrip torrent CzechAV CzechCasting Petra 720p you will need a torrent client.

Torrent Metasearch.

No trackers with seeders or leechers have been found, this doesn't mean that the torrent CzechAV CzechCasting Petra 720p is dead
Help torrentproject.com to stay alive .
Add links of torrentproject.com in your favorite forum, blog, youtube, facebook, twitter etc.
reviews
140
torrent contents

CzechAV - CzechCasting - Petra [720p].wmv torrent

CzechAV - CzechCasting - Petra [720p].wmv544.06 Mb torrent search

Sample info:
Duration: 00:23:57.80, start: 0.000000, bitrate: 3174 kb/s
Stream #0.0: Video: wmv2, yuv420p, 1280x720, 25 tbr, 1k tbn, 1k tbc
Stream #0.1: Audio: wmav2, 48000 Hz, 2 channels, s16, 127 kb/s
screenshots
CzechAV CzechCasting Petra 720p torrent screenshot 2737A7D3D23F3FDB4C1B03D92A90FD8479C4A129 CzechAV CzechCasting Petra 720p torrent screenshot 2737a7d3d23f3fdb4c1b03d92a90fd8479c4a129 torrent CzechAV CzechCasting Petra 720p
CzechAV - CzechCasting - Petra [720p].wmv images are auto generated please report any inapropriate images
 

related search cloud

 petra  czechcasting  czechav