Torrent Search | Torrent Meta Search | Widgets

MikesApartment Candy Love Pay with candy

       
521.4 Mb
found 2 years ago
▲ seeders: 2 ▼ leechers:1
your vote:
real:
fake:
Direct Download
THANK YOU
download torrent
  Direct Downloadsponsored

MikesApartment Candy Love Pay with candy torrent

Information about the torrent MikesApartment Candy Love Pay with candy. Seeders, leechers and torrent status is updated several times per day.

If you want to download the video torrent MikesApartment Candy Love Pay with candy you will need a torrent client.

Torrent Metasearch.

Torrent verified by kat.ph.

tracker
seeders
leechers
↓ torrent client compatible list

↑ hide torrent client compatible list

Help torrentproject.com to stay alive .
Add links of torrentproject.com in your favorite forum, blog, youtube, facebook, twitter etc.
reviews
140
torrent contents

MikesApartment-Candy Love (Pay with candy) torrent

MikesApartment-Candy Love (Pay with candy)
Torrent downloaded from rarbg.com.txt56 bytes torrent search
pay_with_candy_big.mp4521.4 Mb torrent search

Sample info:
Duration: 00:47:19.93, start: 0.000000, bitrate: 1540 kb/s
Stream #0.0	: Video: h264 (Main), yuv420p, 768x432 [PAR 1:1 DAR 16:9], 1503 kb/s, 29.97 fps, 29.97 tbr, 2997 tbn, 59.94 tbc
creation_time	: 2012-06-26 22:57:17
Stream #0.1	: Audio: aac, 32000 Hz, mono, s16, 32 kb/s
creation_time	: 2012-06-26 22:57:17
screenshots
MikesApartment Candy Love Pay torrent screenshot 28389DEA619912E44D973072E6846F48F03DB995 MikesApartment Candy Love Pay  torrent screenshot 28389dea619912e44d973072e6846f48f03db995 torrent MikesApartment Candy Love Pay
MikesApartment-Candy Love (Pay with candy) images are auto generated please report any inapropriate images
 

related search cloud

 candy  rarbg  downloaded  love  mikesapartment  torrent