Torrent Search | Torrent Meta Search | Widgets

Roy Stuart Glimpse 9

       
879.26 Mb
found 4 years ago
▲ seeders: 1 ▼ leechers:2
your vote:
real:
fake:
Direct Download
THANK YOU
download torrent
  Direct Downloadsponsored

Roy Stuart Glimpse 9 torrent

Information about the torrent Roy Stuart Glimpse 9. Seeders, leechers and torrent status is updated everyday.

If you want to download the video torrent Roy Stuart Glimpse 9 you will need a torrent client.

Torrent Metasearch.

Torrent verified by kat.ph.

tracker
seeders
leechers
↓ torrent client compatible list

↑ hide torrent client compatible list

Help torrentproject.com to stay alive .
Add links of torrentproject.com in your favorite forum, blog, youtube, facebook, twitter etc.
reviews
140
torrent contents

Roy Stuart - Glimpse 9 torrent

Roy Stuart - Glimpse 9
Roy Stuart - Glimpse-Vol 9.avi878.81 Mb torrent search
scr.jpg462.32 Kb torrent search

Sample info:
Duration: 02:23:10.76, start: 0.000000, bitrate: 858 kb/s
Stream #0.0: Video: mpeg4, yuv420p, 712x576 [PAR 1:1 DAR 89:72], 25 fps, 25 tbr, 25 tbn, 30k tbc
title	: Video 
Stream #0.1: Audio: mp3, 48000 Hz, 2 channels, s16, 80 kb/s
title	: Audio 
screenshots
Roy Stuart Glimpse 9 torrent screenshot 28457742B4094040200D726E704B36CB26CE4C86 Roy Stuart Glimpse 9 torrent screenshot 28457742b4094040200d726e704b36cb26ce4c86 torrent Roy Stuart Glimpse 9
Roy Stuart - Glimpse 9 images are auto generated please report any inapropriate images
 

related search cloud

 glimpse  stuart