Torrent Search | Torrent Meta Search | Widgets

Madame de Bonplaisir

       
1.39 Gb
found 2 years ago
▲ seeders: 6 ▼ leechers:3
your vote:
real:
fake:
Direct Download
THANK YOU
download torrent
  Direct Downloadsponsored

Madame de Bonplaisir torrent

Information about the torrent Madame de Bonplaisir. Seeders, leechers and torrent status is updated several times per day.

If you want to download the video torrent Madame de Bonplaisir you will need a torrent client.

Torrent Metasearch.

Torrent verified by kat.ph.

tracker
seeders
leechers
↓ torrent client compatible list

↑ hide torrent client compatible list

Help torrentproject.com to stay alive .
Add links of torrentproject.com in your favorite forum, blog, youtube, facebook, twitter etc.
reviews
140
torrent contents

Madame de Bonplaisir.avi torrent

Madame de Bonplaisir.avi1.39 Gb torrent search

Sample info:
Duration: 01:52:41.67, start: 0.000000, bitrate: 1769 kb/s
Stream #0.0: Video: mpeg4, yuv420p, 720x400 [PAR 1:1 DAR 9:5], 23.98 tbr, 23.98 tbn, 23.98 tbc
Stream #0.1: Audio: ac3, 48000 Hz, stereo, s16, 192 kb/s
screenshots
Madame de Bonplaisir torrent screenshot 28B77CCA05B5D19DE7A0E7208BC2BCF8EC087D7F Madame de Bonplaisir torrent screenshot 28b77cca05b5d19de7a0e7208bc2bcf8ec087d7f torrent Madame de Bonplaisir
Madame de Bonplaisir.avi images are auto generated please report any inapropriate images
 

related search cloud

 bonplaisir  madame