Torrent Search | Torrent Meta Search | Widgets

Very Hot Indian Mallu School Teacher Mms

       
26.32 Mb
found 3 years ago
▲ seeders: 1 ▼ leechers:1
your vote:
real:
fake:
Direct Download
THANK YOU
download torrent
  Direct Downloadsponsored

Very Hot Indian Mallu School Teacher Mms torrent

Information about the torrent Very Hot Indian Mallu School Teacher Mms. Seeders, leechers and torrent status is updated everyday.

If you want to download the video torrent Very Hot Indian Mallu School Teacher Mms you will need a torrent client.

Torrent Metasearch.

Torrent verified by kat.ph.

tracker
seeders
leechers
↓ torrent client compatible list

↑ hide torrent client compatible list

Help torrentproject.com to stay alive .
Add links of torrentproject.com in your favorite forum, blog, youtube, facebook, twitter etc.
reviews
140
torrent contents

Very Hot Indian, Mallu School Teacher Mms.wmv torrent

Very Hot Indian, Mallu School Teacher Mms.wmv
BGVFCD.wmv26.32 Mb torrent search

Sample info:
Duration: 00:11:35.29, start: 0.000000, bitrate: 317 kb/s
Stream #0.0(eng): Audio: wmav2, 44100 Hz, 2 channels, s16, 48 kb/s
Stream #0.1(eng): Video: wmv3 (Main), yuv420p, 320x240, 256 kb/s, PAR 1:1 DAR 4:3, 24 tbr, 1k tbn, 1k tbc
screenshots
Very Hot Indian Mallu torrent screenshot 296DD4C3CD4937B3B11F667EB74B4CB348D3D0F5 Very Hot Indian Mallu  torrent screenshot 296dd4c3cd4937b3b11f667eb74b4cb348d3d0f5 torrent Very Hot Indian Mallu
Very Hot Indian, Mallu School Teacher Mms.wmv images are auto generated please report any inapropriate images
 

related search cloud

 teacher  bgvfcd  school  mallu  indian  very