Torrent Search | Torrent Meta Search | Widgets

VivThomas 13 04 19 Cindy Hope And Tess A The End Of A Relationship XXX 1080p MP4 CUNTENT

250.19 Mb
found 1 year ago
▲ seeders: 0 ▼ leechers:1
your vote:
real:
fake:
Direct Download
THANK YOU
download torrent
  Direct Downloadsponsored

VivThomas 13 04 19 Cindy Hope And Tess A The End Of A Relationship XXX 1080p MP4 CUNTENT torrent

Information about the torrent VivThomas 13 04 19 Cindy Hope And Tess A The End Of A Relationship XXX 1080p MP4 CUNTENT. Seeders, leechers and torrent status is updated several times per day.

If you want to download the adult torrent VivThomas 13 04 19 Cindy Hope And Tess A The End Of A Relationship XXX 1080p MP4 CUNTENT you will need a torrent client.

Torrent Metasearch.

tracker
seeders
leechers
↓ torrent client compatible list

↑ hide torrent client compatible list

Help torrentproject.com to stay alive .
Add links of torrentproject.com in your favorite forum, blog, youtube, facebook, twitter etc.
reviews
140
torrent contents

VivThomas.13.04.19.Cindy.Hope.And.Tess.A.The.End.Of.A.Relationship.XXX.1080p.MP4-CUNTENT torrent

VivThomas.13.04.19.Cindy.Hope.And.Tess.A.The.End.Of.A.Relationship.XXX.1080p.MP4-CUNTENT
cnt.vt.130419.cindy.hope.tess.a.the.end.of.a.relationship.mp4250.19 Mb torrent search
cnt.vt.130419.cindy.hope.tess.a.the.end.of.a.relationship.nfo2.1 Kb torrent search

Sample info:
Duration: 00:11:09.75, start: 0.000000, bitrate: 3133 kb/s
Stream #0.0	: Video: h264 (High), yuv420p, 1920x1080 [PAR 1:1 DAR 16:9], 2999 kb/s, 25 fps, 25 tbr, 25 tbn, 50 tbc
Stream #0.1(eng): Audio: aac, 44100 Hz, stereo, s16, 127 kb/s
screenshots
VivThomas 13 04 19 torrent screenshot 2AFB8F3E551FF7B3C3615BA79604A7365EC0FB72 VivThomas 13 04 19  torrent screenshot 2afb8f3e551ff7b3c3615ba79604a7365ec0fb72 torrent VivThomas 13 04 19
VivThomas.13.04.19.Cindy.Hope.And.Tess.A.The.End.Of.A.Relationship.XXX.1080p.MP4-CUNTENT images are auto generated please report any inapropriate images
 

related search cloud

 relationship  hope  cindy  cuntent  vivthomas