Torrent Search | Torrent Meta Search | Widgets

Super Hot Wife Sexy With Young Boy

       
249.88 Mb
found 3 years ago
▲ seeders: 4 ▼ leechers:2
your vote:
real:
fake:
Direct Download
THANK YOU
download torrent
  Direct Downloadsponsored

Super Hot Wife Sexy With Young Boy torrent

Information about the torrent Super Hot Wife Sexy With Young Boy. Seeders, leechers and torrent status is updated everyday.

If you want to download the video torrent Super Hot Wife Sexy With Young Boy you will need a torrent client.

Torrent Metasearch.

.

tracker
seeders
leechers
↓ torrent client compatible list

↑ hide torrent client compatible list

Help torrentproject.com to stay alive .
Add links of torrentproject.com in your favorite forum, blog, youtube, facebook, twitter etc.
reviews
140
torrent contents

Super Hot Wife Sexy With Young Boy.mp4 torrent

Super Hot Wife Sexy With Young Boy.mp4249.88 Mb torrent search

Sample info:
Duration: 00:20:32.76, start: 0.000000, bitrate: 1700 kb/s
Stream #0.0	: Video: mpeg4 (Simple Profile), yuv420p, 720x576 [PAR 1:1 DAR 5:4], 1593 kb/s, 30 fps, 30 tbr, 30k tbn, 30 tbc
creation_time	: 2010-10-31 10:12:38
Stream #0.1	: Audio: aac, 48000 Hz, stereo, s16, 104 kb/s
creation_time	: 2010-10-31 10:13:01
Stream #0.2	: Data: mp4s / 0x7334706D, 0 kb/s
creation_time	: 2010-10-31 10:13:07
Stream #0.3	: Data: mp4s / 0x7334706D, 0 kb/s
creation_time	: 2010-10-31 10:13:07
screenshots
Super Hot Wife Sexy torrent screenshot 2B4B874BACE3A8CFD54AB016FA00C40551EC0390 Super Hot Wife Sexy  torrent screenshot 2b4b874bace3a8cfd54ab016fa00c40551ec0390 torrent Super Hot Wife Sexy
Super Hot Wife Sexy With Young Boy.mp4 images are auto generated please report any inapropriate images
 

related search cloud

 young  sexy  wife  super

Torrent Anonymous Download