Torrent Search | Torrent Meta Search | Widgets

Poison Ivy The New Seduction (1997) Unrated BRRip 720p x264 Dual Audio Hindi+English by K@rtik ExD Exclusive

900.63 Mb
found 2 years ago
▲ seeders: 11 ▼ leechers:12
your vote:
real:
fake:
Direct Download
THANK YOU
download torrent
  Direct Downloadsponsored

Poison Ivy The New Seduction (1997) Unrated BRRip 720p x264 Dual Audio Hindi+English by K@rtik ExD Exclusive torrent

Information about the torrent Poison Ivy The New Seduction (1997) Unrated BRRip 720p x264 Dual Audio Hindi+English by K@rtik ExD Exclusive. Seeders, leechers and torrent status is updated several times per day.

If you want to download the hdrip torrent Poison Ivy The New Seduction (1997) Unrated BRRip 720p x264 Dual Audio Hindi+English by K@rtik ExD Exclusive you will need a torrent client.

Torrent Metasearch.

tracker
seeders
leechers
↓ torrent client compatible list

↑ hide torrent client compatible list

Help torrentproject.com to stay alive .
Add links of torrentproject.com in your favorite forum, blog, youtube, facebook, twitter etc.
reviews
140
torrent contents

Poison Ivy.The New Seduction.[1997].[Unrated].BRRip.720p.x264 Dual Audio [Hindi+English].by K@rtik [ExD Exclusive] torrent

Poison Ivy.The New Seduction.[1997].[Unrated].BRRip.720p.x264 Dual Audio [Hindi+English].by K@rtik [ExD Exclusive]
Poison Ivy.The New Seduction.[1997].[Unrated].BRRip.720p.x264 Dual Audio [Hindi+English].by K@rtik [ExD Exclusive].mkv882.88 Mb torrent search

Poison Ivy.The New Seduction.[1997].[Unrated].BRRip.720p.x264 Dual Audio [Hindi+English].by K@rtik [ExD Exclusive]
 Sample
Poison Ivy.The New Seduction.[1997].Sample.mkv17.52 Mb torrent search

Poison Ivy.The New Seduction.[1997].[Unrated].BRRip.720p.x264 Dual Audio [Hindi+English].by K@rtik [ExD Exclusive]
Cover.jpg184.97 Kb torrent search
Poison Ivy.The New Seduction.[1997].[Unrated].BRRip.720p.x264 Dual Audio [Hindi+English].by K@rtik [ExD Exclusive].srt52.28 Kb torrent search

Sample info:
Duration: 01:34:15.28, start: 0.000000, bitrate: 448 kb/s
Stream #0.0(eng): Video: h264, yuv420p, 1280x680 [PAR 1:1 DAR 32:17], 25 fps, 25 tbr, 1k tbn, 50 tbc
title	: K@rtik
Stream #0.1(eng): Audio: ac3, 48000 Hz, 5.1, s16, 256 kb/s
title	: K@rtik
Stream #0.2(hin): Audio: ac3, 48000 Hz, stereo, s16, 192 kb/s
title	: K@rtik
screenshots
Poison Ivy The New torrent screenshot 2B8EAE935E64F74E7AAB9437D58797246B31394F Poison Ivy The New  torrent screenshot 2b8eae935e64f74e7aab9437d58797246b31394f torrent Poison Ivy The New
Poison Ivy.The New Seduction.[1997].[Unrated].BRRip.720p.x264 Dual Audio [Hindi+English].by K@rtik [ExD Exclusive] images are auto generated please report any inapropriate images
 

related search cloud

 poison  seduction  english  exclusive  hindi  rtik  audio  dual  unrated  brrip