Torrent Search | Torrent Meta Search | Widgets

Moms Bang Teens DS

448.96 Mb
found 1 year ago
▲ seeders: 1 ▼ leechers:5
your vote:
real:
fake:
Direct Download
THANK YOU
download torrent
  Direct Downloadsponsored

Moms Bang Teens DS torrent

Information about the torrent Moms Bang Teens DS. Seeders, leechers and torrent status is updated everyday.

If you want to download the video torrent Moms Bang Teens DS you will need a torrent client.

Torrent Metasearch.

tracker
seeders
leechers
↓ torrent client compatible list

↑ hide torrent client compatible list

Help torrentproject.com to stay alive .
Add links of torrentproject.com in your favorite forum, blog, youtube, facebook, twitter etc.
reviews
140
torrent contents

Moms_Bang_Teens_DS torrent

Moms_Bang_Teens_DS
Moms_Bang_Teens_DS.mp4448.96 Mb torrent search

Sample info:
Duration: 00:40:46.04, start: 0.000000, bitrate: 1539 kb/s
Stream #0:0	: Video: h264 (Main) (avc1 / 0x31637661), yuv420p, 768x432 [SAR 1:1 DAR 16:9], 1503 kb/s, 29.97 fps, 29.97 tbr, 2997 tbn, 59.94 tbc
creation_time	: 2013-06-06 14:02:45
handler_name	: Apple Video Media Handler
Stream #0:1	: Audio: aac (mp4a / 0x6134706D), 32000 Hz, mono, s16, 32 kb/s
creation_time	: 2013-06-06 14:02:45
handler_name	: Apple Sound Media Handler
screenshots
Moms Bang Teens DS torrent screenshot 2C4A81A8F2D6C1C7FB248DD6DA01A60D92DEFC80 Moms Bang Teens DS torrent screenshot 2c4a81a8f2d6c1c7fb248dd6da01a60d92defc80 torrent Moms Bang Teens DS
Moms_Bang_Teens_DS images are auto generated please report any inapropriate images
 

related search cloud

 teens  bang  moms