Torrent Search | Torrent Meta Search | Widgets

Приколы с кошками

164.57 Mb
found 2 years ago
▲ seeders: 3 ▼ leechers:0
your vote:
real:
fake:
Direct Download
THANK YOU
download torrent
  Direct Downloadsponsored

Приколы с кошками torrent

Information about the torrent Приколы с кошками. Seeders, leechers and torrent status is updated everyday.

If you want to download the video torrent Приколы с кошками you will need a torrent client.

Torrent Metasearch.

tracker
seeders
leechers
↓ torrent client compatible list

↑ hide torrent client compatible list

Help torrentproject.com to stay alive .
Add links of torrentproject.com in your favorite forum, blog, youtube, facebook, twitter etc.
reviews
140
torrent contents

Приколы с кошками torrent

Приколы с кошками
Кошки-наркоманки.avi14.77 Mb torrent search
FunnyCats[1].AVI13.38 Mb torrent search
Кошки (Подборка2).wmv9.69 Mb torrent search
unikcat.wmv8.56 Mb torrent search
smmmkoty.wmv7.54 Mb torrent search
смешные животные.wmv7.21 Mb torrent search
belkakot.wmv7.14 Mb torrent search
videoplayback.mkv5.95 Mb torrent search
thejinglecats.wmv5.73 Mb torrent search
Прикольные коты.wmv4.47 Mb torrent search
megakot.wmv3.95 Mb torrent search
kotenoknote.wmv3.59 Mb torrent search
3vid_2.wmv3.52 Mb torrent search
dj-cat.wmv3.38 Mb torrent search
kotyyyy.wmv3.22 Mb torrent search
barsik.wmv2.9 Mb torrent search
Kids Head.mpeg2.83 Mb torrent search
More Funny Cats.wmv2.83 Mb torrent search
dumb_kitty.wmv2.74 Mb torrent search
Funny Cats.wmv2.72 Mb torrent search
Cats Better Then Dogs.wmv2.71 Mb torrent search
Odd Friends Video.wmv2.55 Mb torrent search
Spider Cats.wmv2.41 Mb torrent search
funnycats.wmv2.32 Mb torrent search
fonic_video_029.mpg2.29 Mb torrent search
Cat vs Dog.wmv2.26 Mb torrent search
kot_sleep.wmv1.96 Mb torrent search
korm.wmv1.92 Mb torrent search
Бой кошки с змеей.wmv1.87 Mb torrent search
Cat vs Toilet Paper.wmv1.8 Mb torrent search
3cats.wmv1.74 Mb torrent search
kitten_attack_mirror.wmv1.73 Mb torrent search
Cat - Massager.mpg1.66 Mb torrent search
catphone.wmv1.61 Mb torrent search
sabaka.mpeg1.47 Mb torrent search
kotenoikot.wmv1.34 Mb torrent search
speaking.wmv1.29 Mb torrent search
kitti.mpeg1.27 Mb torrent search
kotvbanke.wmv1.17 Mb torrent search
Ford 1.mpeg1.04 Mb torrent search
cat_boxing.mkv1.04 Mb torrent search
catglas.wmv992.73 Kb torrent search
sleepingkitten.wmv992.36 Kb torrent search
13-12-2-koti.wmv981.53 Kb torrent search
kotikstoy.wmv924.03 Kb torrent search
koshkomyt.wmv843.06 Kb torrent search
cat.wmv799.48 Kb torrent search
cats.wmv768.45 Kb torrent search
koty.wmv735.88 Kb torrent search
umncat.wmv724.57 Kb torrent search

Sample info:
Duration: 00:02:19.62, start: 0.000000, bitrate: 887 kb/s
Stream #0.0: Video: mpeg4, yuv420p, 320x240 [PAR 1:1 DAR 4:3], 25.00 tb(r)
Stream #0.1: Audio: mp3, 48000 Hz, stereo, 96 kb/s
screenshots
Приколы с кошками torrent screenshot 2D11B9AE2F86CB4900724B9A9A2EE8065452D72D Приколы с кошками torrent screenshot 2d11b9ae2f86cb4900724b9a9a2ee8065452d72d torrent Приколы с кошками
Приколы с кошками images are auto generated please report any inapropriate images
 

related search cloud

 cats  video  funnycats  funny  mirror  maager  catphone  sabaka  koty  attack

Torrent Anonymous Download