Torrent Search | Torrent Meta Search | Widgets

Mazzaratie Monica Evil BBW Gold 2 Scene 3 EvilAngel (2013)

1.79 Gb
found 1 year ago
▲ seeders: 1 ▼ leechers:3
your vote:
real:
fake:
Direct Download
THANK YOU
download torrent
  Direct Downloadsponsored

Mazzaratie Monica Evil BBW Gold 2 Scene 3 EvilAngel (2013) torrent

Information about the torrent Mazzaratie Monica Evil BBW Gold 2 Scene 3 EvilAngel (2013). Seeders, leechers and torrent status is updated several times per day.

If you want to download the video torrent Mazzaratie Monica Evil BBW Gold 2 Scene 3 EvilAngel (2013) you will need a torrent client.

Torrent Metasearch.

tracker
seeders
leechers
↓ torrent client compatible list

↑ hide torrent client compatible list

Help torrentproject.com to stay alive .
Add links of torrentproject.com in your favorite forum, blog, youtube, facebook, twitter etc.
reviews
140
torrent contents

Mazzaratie.Monica.Evil.BBW.Gold.2.Scene.3.EvilAngel.2013.FullHD_iyutero.com.mp4 torrent

Mazzaratie.Monica.Evil.BBW.Gold.2.Scene.3.EvilAngel.2013.FullHD_iyutero.com.mp41.79 Gb torrent search

Sample info:
Duration: 00:36:44.10, start: 0.000000, bitrate: 6956 kb/s
Stream #0.0	: Video: h264 (High), yuv420p, 1920x1080 [PAR 1:1 DAR 16:9], 6799 kb/s, 29.97 fps, 29.97 tbr, 2997 tbn, 59.94 tbc
creation_time	: 1970-01-01 00:00:00
Stream #0.1	: Audio: aac, 44100 Hz, stereo, s16, 151 kb/s
creation_time	: 1970-01-01 00:00:00
screenshots
Mazzaratie Monica Evil BBW torrent screenshot 2F7B49B655AE4F4AD54B90FB57582C2847A27BBE Mazzaratie Monica Evil BBW  torrent screenshot 2f7b49b655ae4f4ad54b90fb57582c2847a27bbe torrent Mazzaratie Monica Evil BBW
Mazzaratie.Monica.Evil.BBW.Gold.2.Scene.3.EvilAngel.2013.FullHD_iyutero.com.mp4 images are auto generated please report any inapropriate images
 

related search cloud

 evilangel  fullhd  iyutero  scene  gold  monica  evil  mazzaratie

Torrent Anonymous Download