Torrent Search | Torrent Meta Search | Widgets

Sandy Pick Up Lines 78

       
175.64 Mb
found 3 years ago
▲ seeders: 2 ▼ leechers:1
your vote:
real:
fake:
Direct Download
THANK YOU
download torrent
  Direct Downloadsponsored

Sandy Pick Up Lines 78 torrent

Information about the torrent Sandy Pick Up Lines 78. Seeders, leechers and torrent status is updated several times per day.

If you want to download the video torrent Sandy Pick Up Lines 78 you will need a torrent client.

Torrent Metasearch.

Torrent verified by torlock.com.

tracker
seeders
leechers
↓ torrent client compatible list

↑ hide torrent client compatible list

Help torrentproject.com to stay alive .
Add links of torrentproject.com in your favorite forum, blog, youtube, facebook, twitter etc.
reviews
140
torrent contents

Sandy - Pick Up Lines [78].avi torrent

Sandy - Pick Up Lines [78].avi
MKNBH.avi175.64 Mb torrent search

Sample info:
Duration: 00:13:43.13, start: 0.000000, bitrate: 1789 kb/s
Stream #0.0: Video: mpeg4, yuv420p, 512x384 [PAR 1:1 DAR 4:3], 29.97 tb(r)
Stream #0.1: Audio: mp3, 44100 Hz, stereo, 128 kb/s
screenshots
Sandy Pick Up Lines torrent screenshot 308D005115EEE8069286A7BCAD4D385388C5344D Sandy Pick Up Lines  torrent screenshot 308d005115eee8069286a7bcad4d385388c5344d torrent Sandy Pick Up Lines
Sandy - Pick Up Lines [78].avi images are auto generated please report any inapropriate images
you may be interested in these torrents seeders leechers size found
Sandy Young Girls in Dark Territory 3 3 0 312.11 Mb 5 months ago

Sandy - Pick Up Lines 78.avi Sandy - Young Girls in Dark Territory 3.mpg 0


Sandy Pick Up Lines 78 0 1 175.64 Mb 4 years ago

Sandy - Pick Up Lines 78.avi


Sandy Pick Up Babes 11 0 1 147.58 Mb 3 years ago

Sandy - Pick Up Babes 11.mpg


 

related search cloud

 mknbh  lines  pick  sandy