Torrent Search | Torrent Meta Search | Widgets

Mario Salieri Inferno Nikki Andersson Karen Lancaume Laura Angel

657.18 Mb
found 2 years ago
▲ seeders: 3 ▼ leechers:3
your vote:
real:
fake:
Direct Download
THANK YOU
download torrent
  Direct Downloadsponsored

Mario Salieri Inferno Nikki Andersson Karen Lancaume Laura Angel torrent

Information about the torrent Mario Salieri Inferno Nikki Andersson Karen Lancaume Laura Angel. Seeders, leechers and torrent status is updated several times per day.

If you want to download the video torrent Mario Salieri Inferno Nikki Andersson Karen Lancaume Laura Angel you will need a torrent client.

Torrent Metasearch.

tracker
seeders
leechers
↓ torrent client compatible list

↑ hide torrent client compatible list

Help torrentproject.com to stay alive .
Add links of torrentproject.com in your favorite forum, blog, youtube, facebook, twitter etc.
reviews
140
torrent contents

Mario Salieri - Inferno (Nikki Andersson, Karen Lancaume, Laura Angel ) torrent

Mario Salieri - Inferno (Nikki Andersson, Karen Lancaume, Laura Angel )
1.JPG46.1 Kb torrent search
Inferno Back Cover.jpg48.72 Kb torrent search
Inferno Front Cover.jpg45.17 Kb torrent search
Inferno.nfo424 bytes torrent search
Mario Salieri - Inferno (Monica Roccaforte,Laura Angel,Eva Falck,Ursula Moore).avi657.05 Mb torrent search

Sample info:
Duration: 01:30:17.12, start: 0.000000, bitrate: 1017 kb/s
Stream #0.0: Video: msmpeg4, yuv420p, 640x480, 25 fps, 25 tbr, 25 tbn, 25 tbc
title	: Videostream
Stream #0.1: Audio: mp3, 48000 Hz, 2 channels, s16, 96 kb/s
title	: Audiostream 1
screenshots
Mario Salieri Inferno Nikki torrent screenshot 328BD74E3E2D7F8D42C1EF80878EAA23C36F1EA0 Mario Salieri Inferno Nikki  torrent screenshot 328bd74e3e2d7f8d42c1ef80878eaa23c36f1ea0 torrent Mario Salieri Inferno Nikki
Mario Salieri - Inferno (Nikki Andersson, Karen Lancaume, Laura Angel ) images are auto generated please report any inapropriate images
 

related search cloud

 inferno  mario  cover  laura  angel  salieri  roccaforte  falck  ursula  moore

Torrent Anonymous Download