Torrent Search | Torrent Meta Search | Widgets

Motivewave Ultimate Edition with license crack

51.07 Mb
found 1 year ago
▲ seeders: 1 ▼ leechers:0
your vote:
real:
fake:
Direct Download
THANK YOU
download torrent
  Direct Downloadsponsored

Motivewave Ultimate Edition with license crack torrent

Information about the torrent Motivewave Ultimate Edition with license crack. Seeders, leechers and torrent status is updated everyday.

If you want to download the video torrent Motivewave Ultimate Edition with license crack you will need a torrent client.

Torrent Metasearch.

tracker
seeders
leechers
↓ torrent client compatible list

↑ hide torrent client compatible list

Help torrentproject.com to stay alive .
Add links of torrentproject.com in your favorite forum, blog, youtube, facebook, twitter etc.
reviews
140
torrent contents

Motivewave Ultimate Edition with license crack torrent

Motivewave Ultimate Edition with license crack
how to run crack.mp426.69 Mb torrent search
motivewave_setup.exe24.38 Mb torrent search
License.txt137 bytes torrent search

Sample info:
Duration: 00:04:00.09, start: 0.000000, bitrate: 932 kb/s
Stream #0.0(eng): Video: h264 (High), yuv420p, 1280x720 [PAR 1:1 DAR 16:9], 856 kb/s, 15 fps, 15 tbr, 15k tbn, 30 tbc
creation_time	: 2013-03-03 08:17:26
Stream #0.1(eng): Audio: aac, 44100 Hz, stereo, s16, 74 kb/s
creation_time	: 2013-03-03 08:17:26
screenshots
Motivewave Ultimate Edition with torrent screenshot 32CD574F2C98540FB0CB0422EC8E0D3D10AA6703 Motivewave Ultimate Edition with  torrent screenshot 32cd574f2c98540fb0cb0422ec8e0d3d10aa6703 torrent Motivewave Ultimate Edition with
Motivewave Ultimate Edition with license crack images are auto generated please report any inapropriate images
 

related search cloud

 motivewave  crack  license  setup  edition  ultimate

Torrent Anonymous Download