Torrent Search | Torrent Meta Search | Widgets

Bastardos Sin Gloria BrRip Audio Latino

699.64 Mb
found 2 years ago
▲ seeders: 48 ▼ leechers:1
your vote:
real:
fake:
Direct Download
THANK YOU
download torrent
  Direct Downloadsponsored

Bastardos Sin Gloria BrRip Audio Latino torrent

Information about the torrent Bastardos Sin Gloria BrRip Audio Latino. Seeders, leechers and torrent status is updated several times per day.

If you want to download the hdrip torrent Bastardos Sin Gloria BrRip Audio Latino you will need a torrent client.

Torrent Metasearch.

tracker
seeders
leechers
↓ torrent client compatible list

↑ hide torrent client compatible list

Help torrentproject.com to stay alive .
Add links of torrentproject.com in your favorite forum, blog, youtube, facebook, twitter etc.
reviews
140
torrent contents

Bastardos.Sin.Gloria.BrRip.Audio.Latino.avi torrent

Bastardos.Sin.Gloria.BrRip.Audio.Latino.avi699.64 Mb torrent search

Sample info:
Duration: 02:32:59.64, start: 0.000000, bitrate: 639 kb/s
Stream #0.0: Video: mpeg4, yuv420p, 672x288 [PAR 1:1 DAR 7:3], 23.98 tbr, 23.98 tbn, 23.98 tbc
Stream #0.1: Audio: mp3, 48000 Hz, 2 channels, s16, 128 kb/s
screenshots
Bastardos Sin Gloria BrRip torrent screenshot 32F8689E220364593C7237E7EDF3C456C0D603B6 Bastardos Sin Gloria BrRip  torrent screenshot 32f8689e220364593c7237e7edf3c456c0d603b6 torrent Bastardos Sin Gloria BrRip
Bastardos.Sin.Gloria.BrRip.Audio.Latino.avi images are auto generated please report any inapropriate images
 

related search cloud

 latino  audio  brrip  gloria  bastardos

Torrent Anonymous Download