Torrent Search | Torrent Meta Search | Widgets

School Models Dianne 02 Mummy Edit

103.77 Mb
found 3 years ago
▲ seeders: 6 ▼ leechers:1
your vote:
real:
fake:
Direct Download
THANK YOU
download torrent
  Direct Downloadsponsored

School Models Dianne 02 Mummy Edit torrent

Information about the torrent School Models Dianne 02 Mummy Edit. A torrent file stores metadata that can be used from a BitTorrent client.

If you want to download the video torrent School Models Dianne 02 Mummy Edit you will need a torrent client.

Torrent Metasearch.

tracker
seeders
leechers
↓ torrent client compatible list

↑ hide torrent client compatible list

Help torrentproject.com to stay alive .
Add links of torrentproject.com in your favorite forum, blog, youtube, facebook, twitter etc.
reviews
140
torrent contents

School Models Dianne 02 (Mummy Edit).avi torrent

School Models Dianne 02 (Mummy Edit).avi103.77 Mb torrent search

Sample info:
Duration: 00:12:54.00, start: 0.000000, bitrate: 1124 kb/s
Stream #0.0: Video: mpeg4, yuv420p, 768x576 [PAR 1:1 DAR 4:3], 29.97 tb(r)
Stream #0.1: Audio: mp3, 24000 Hz, stereo, 56 kb/s
 

related search cloud

 edit  mummy  dianne  models  school

Torrent Anonymous Download