Torrent Search | Torrent Meta Search | Widgets

Veronica Canada Amateur Anal Attempts 2

       
153.88 Mb
found 2 years ago
▲ seeders: 3 ▼ leechers:2
your vote:
real:
fake:
Direct Download
THANK YOU
download torrent
  Direct Downloadsponsored

Veronica Canada Amateur Anal Attempts 2 torrent

Information about the torrent Veronica Canada Amateur Anal Attempts 2. Seeders, leechers and torrent status is updated everyday.

If you want to download the amateur torrent Veronica Canada Amateur Anal Attempts 2 you will need a torrent client.

Torrent Metasearch.

Torrent verified by kat.ph.

tracker
seeders
leechers
↓ torrent client compatible list

↑ hide torrent client compatible list

Help torrentproject.com to stay alive .
Add links of torrentproject.com in your favorite forum, blog, youtube, facebook, twitter etc.
reviews
140
torrent contents

Veronica Canada - Amateur Anal Attempts 2.avi torrent

Veronica Canada - Amateur Anal Attempts 2.avi153.88 Mb torrent search

Sample info:
Duration: 00:18:56.97, start: 0.000000, bitrate: 1135 kb/s
Stream #0.0: Video: mpeg4, yuv420p, 512x384 [PAR 1:1 DAR 4:3], 29.97 tbr, 29.97 tbn, 29.98 tbc
Stream #0.1: Audio: mp3, 48000 Hz, 2 channels, s16, 143 kb/s
screenshots
Veronica Canada Amateur Anal torrent screenshot 34460E1498FDC7B85C32792A2B8DEB2BEDC07895 Veronica Canada Amateur Anal  torrent screenshot 34460e1498fdc7b85c32792a2b8deb2bedc07895 torrent Veronica Canada Amateur Anal
Veronica Canada - Amateur Anal Attempts 2.avi images are auto generated please report any inapropriate images
 

related search cloud

 attempts  anal  amateur  canada  veronica

Torrent Anonymous Download