Torrent Search | Torrent Meta Search | Widgets

Perros de Paja Spanish DVDRip

       
1.16 Gb
found 3 years ago
▲ seeders: 10 ▼ leechers:0
your vote:
real:
fake:
Direct Download
THANK YOU
download torrent
  Direct Downloadsponsored

Perros de Paja Spanish DVDRip torrent

Information about the torrent Perros de Paja Spanish DVDRip. Seeders, leechers and torrent status is updated everyday.

If you want to download the dvdrip torrent Perros de Paja Spanish DVDRip you will need a torrent client.

Torrent Metasearch.

Torrent verified by kat.ph.

tracker
seeders
leechers
↓ torrent client compatible list

↑ hide torrent client compatible list

Help torrentproject.com to stay alive .
Add links of torrentproject.com in your favorite forum, blog, youtube, facebook, twitter etc.
reviews
140
torrent contents

Perros de Paja (Spanish DVDRip).avi torrent

Perros de Paja (Spanish DVDRip).avi1.16 Gb torrent search

Sample info:
Duration: 01:52:19.92, start: 0.000000, bitrate: 1484 kb/s
Stream #0.0: Video: mpeg4, yuv420p, 720x392 [PAR 1:1 DAR 90:49], 25 tbr, 25 tbn, 25 tbc
Stream #0.1: Audio: mp3, 48000 Hz, 2 channels, s16, 64 kb/s
screenshots
Perros de Paja Spanish torrent screenshot 344B6A099D0E23568896DB1370465D3F8C79B69A Perros de Paja Spanish  torrent screenshot 344b6a099d0e23568896db1370465d3f8c79b69a torrent Perros de Paja Spanish
Perros de Paja (Spanish DVDRip).avi images are auto generated please report any inapropriate images
 

related search cloud

 dvdrip  spanish  paja  perros