Torrent Search | Torrent Meta Search | Widgets

oggy et les cafards

       
7.67 Gb
found 4 years ago
▲ seeders: 8 ▼ leechers:2
your vote:
real:
fake:
Direct Download
THANK YOU
download torrent
  Direct Downloadsponsored

oggy et les cafards torrent

Information about the torrent oggy et les cafards. Seeders, leechers and torrent status is updated several times per day.

If you want to download the video torrent oggy et les cafards you will need a torrent client.

Torrent Metasearch.

.

tracker
seeders
leechers
↓ torrent client compatible list

↑ hide torrent client compatible list

Help torrentproject.com to stay alive .
Add links of torrentproject.com in your favorite forum, blog, youtube, facebook, twitter etc.
reviews
140
torrent contents

oggy et les cafards torrent

oggy_et_les_cafards
000 - Generique Debut.avi5.23 Mb torrent search
001 - Chocolat amer.avi50.27 Mb torrent search
002 - Coup de cafard.avi50.33 Mb torrent search
003 - Les frites.avi50.33 Mb torrent search
004 - Mission Oggy.avi50.33 Mb torrent search
005 - Tchao tympan.avi50.32 Mb torrent search
006 - Le patient.avi50.24 Mb torrent search
007 - Rythme & bleus.avi50.46 Mb torrent search
008 - Plus dure sera la chute.avi50.31 Mb torrent search
009 - Petit petit petit.avi50.31 Mb torrent search
010 - Joyeux anniversaire.avi50.32 Mb torrent search
011 - La metamorphose.avi50.31 Mb torrent search
012 - Jalousie.avi50.31 Mb torrent search
013 - Vendredi 13.avi50.31 Mb torrent search
014 - Sois zen avec loseille.avi50.27 Mb torrent search
015 - Dent de lait.avi50.32 Mb torrent search
016 - Une vie duraille.avi50.12 Mb torrent search
017 - Grignotator.avi50.32 Mb torrent search
018 - 37.2 toute la journée.avi50.31 Mb torrent search
019 - Soigne ton code.avi50.32 Mb torrent search
020 - Cherchez lintrus!.avi50.29 Mb torrent search
021 - Jolie poupée.avi50.31 Mb torrent search
022 - La solitude.avi50.32 Mb torrent search
023 - Oggy et les cafards géants.avi50.28 Mb torrent search
024 - Oggy et les bébés.avi50.31 Mb torrent search
025 - Comme des chiens.avi50.31 Mb torrent search
026 - Jeux de carpes.avi50.17 Mb torrent search
027 - Rock nroll altitude.avi50.31 Mb torrent search
028 - Un diner en ville.avi50.31 Mb torrent search
029 - Le régime dOggy.avi50.29 Mb torrent search
030 - La tête et les muscles.avi48.89 Mb torrent search
031 - Voyage dans le temps.avi50.32 Mb torrent search
032 - Le ticket de loto.avi50.32 Mb torrent search
033 - Globulopolis.avi50.32 Mb torrent search
034 - Occupé.avi50.31 Mb torrent search
035 - Maison a louer.avi50.32 Mb torrent search
036 - Lappat se rebiffe.avi50.28 Mb torrent search

Sample info:
Duration: 00:06:27.76, start: 0.000000, bitrate: 1127 kb/s
Stream #0.0: Video: mpeg4, yuv420p, 640x480 [PAR 1:1 DAR 4:3], 25 tbr, 25 tbn, 25 tbc
Stream #0.1: Audio: mp3, 44100 Hz, 2 channels, s16, 128 kb/s
screenshots
oggy et les cafards torrent screenshot 34B48B9A23FF3CAD8DFCE5AA324736AAA7B8DD74 oggy et les cafards torrent screenshot 34b48b9a23ff3cad8dfce5aa324736aaa7b8dd74 torrent oggy et les cafards
oggy et les cafards images are auto generated please report any inapropriate images
 

related search cloud

 oggy  petit  cafards  carpes  jeux  rock  altitude  chiens  nroll  ants