Torrent Search | Torrent Meta Search | Widgets

Espinete y Don Pimpon 26 Personas Animales y Juegos DVDRip Spanish

428.76 Mb
found 2 years ago
▲ seeders: 1 ▼ leechers:0
your vote:
real:
fake:
Direct Download
THANK YOU
download torrent
  Direct Downloadsponsored

Espinete y Don Pimpon 26 Personas Animales y Juegos DVDRip Spanish torrent

Information about the torrent Espinete y Don Pimpon 26 Personas Animales y Juegos DVDRip Spanish. Seeders, leechers and torrent status is updated several times per day.

If you want to download the dvdrip torrent Espinete y Don Pimpon 26 Personas Animales y Juegos DVDRip Spanish you will need a torrent client.

Torrent Metasearch.

tracker
seeders
leechers
↓ torrent client compatible list

↑ hide torrent client compatible list

Help torrentproject.com to stay alive .
Add links of torrentproject.com in your favorite forum, blog, youtube, facebook, twitter etc.
reviews
140
torrent contents

Espinete y Don Pimpon - 26 Personas Animales y Juegos [DVDRip][Spanish][www.lokotorrents.com] torrent

Espinete y Don Pimpon - 26 Personas Animales y Juegos [DVDRip][Spanish][www.lokotorrents.com]
ESPINete 26 www.lokotorrents.com.avi428.76 Mb torrent search

Sample info:
Duration: 00:24:18.12, start: 0.000000, bitrate: 2466 kb/s
Stream #0.0: Video: mpeg4, yuv420p, 720x576 [PAR 1:1 DAR 5:4], 25 tbr, 25 tbn, 25 tbc
Stream #0.1: Audio: mp3, 48000 Hz, 2 channels, s16, 128 kb/s
screenshots
Espinete y Don Pimpon torrent screenshot 35876C24C0734102EF4BB49B2772E3DBEAF455E2 Espinete y Don Pimpon  torrent screenshot 35876c24c0734102ef4bb49b2772e3dbeaf455e2 torrent Espinete y Don Pimpon
Espinete y Don Pimpon - 26 Personas Animales y Juegos [DVDRip][Spanish][www.lokotorrents.com] images are auto generated please report any inapropriate images
 

related search cloud

 espinete  lokotorrents  dvdrip  spanish  animales  pimpon  personas  juegos

Torrent Anonymous Download