Torrent Search | Torrent Meta Search | Widgets

Just For Laughs Collection Volumes 1 4

       
929.59 Mb
found 4 years ago
▲ seeders: 10 ▼ leechers:2
your vote:
real:
fake:
Direct Download
THANK YOU
download torrent
  Direct Downloadsponsored

Just For Laughs Collection Volumes 1 4 torrent

Information about the torrent Just For Laughs Collection Volumes 1 4. Seeders, leechers and torrent status is updated everyday.

If you want to download the video torrent Just For Laughs Collection Volumes 1 4 you will need a torrent client.

Torrent Metasearch.

Torrent verified by kat.ph.

tracker
seeders
leechers
↓ torrent client compatible list

↑ hide torrent client compatible list

Help torrentproject.com to stay alive .
Add links of torrentproject.com in your favorite forum, blog, youtube, facebook, twitter etc.
reviews
140
torrent contents

Just.For.Laughs.Collection.Volumes.1-4 torrent

Just.For.Laughs.Collection.Volumes.1-4
 Just.For.Laughs.Gags.DVD-2.Volume.2
Just.For.Laughs.Gags-2101-The.Drill.Team.avi4.02 Mb torrent search
Just.For.Laughs.Gags-2102-The.Cell.Phone.Block.avi4.64 Mb torrent search
Just.For.Laughs.Gags-2103-Blind-Testing.avi5.34 Mb torrent search
Just.For.Laughs.Gags-2104-By.The.Seat.Of.His.Pants.avi7.33 Mb torrent search
Just.For.Laughs.Gags-2105-Runaway.Scooter.avi5.86 Mb torrent search
Just.For.Laughs.Gags-2106-Guiding.A.Guide.Dog.avi4.7 Mb torrent search
Just.For.Laughs.Gags-2107-F-Stop.avi5.39 Mb torrent search
Just.For.Laughs.Gags-2108-Hugging.A.Stranger.avi5.14 Mb torrent search
Just.For.Laughs.Gags-2109-The.Right.Moves.avi5.37 Mb torrent search
Just.For.Laughs.Gags-2110-Mannequin.Love.avi5.37 Mb torrent search
Just.For.Laughs.Gags-2111-Dont.Box.Me.In.avi7.46 Mb torrent search
Just.For.Laughs.Gags-2112-Traffic.Control.avi5.05 Mb torrent search
Just.For.Laughs.Gags-2113-Fart.Machine.avi4.76 Mb torrent search
Just.For.Laughs.Gags-2114-Drag.Net.avi8.54 Mb torrent search
Just.For.Laughs.Gags-2201-Umbrella.Attack.avi4.5 Mb torrent search
Just.For.Laughs.Gags-2202-Band.Aid.avi4.73 Mb torrent search
Just.For.Laughs.Gags-2203-Cop.Vs.Cop.avi7.73 Mb torrent search
Just.For.Laughs.Gags-2204-A.Blind.Embrace.avi5.84 Mb torrent search
Just.For.Laughs.Gags-2205-All.Tied.Up.avi4.39 Mb torrent search
Just.For.Laughs.Gags-2206-The.Bottle.Neck.avi5.42 Mb torrent search
Just.For.Laughs.Gags-2207-A.Feather.In.Her.Cap.avi4.69 Mb torrent search
Just.For.Laughs.Gags-2208-Toxic.avi5.32 Mb torrent search
Just.For.Laughs.Gags-2209-Gorilla.Warfare.avi6.24 Mb torrent search
Just.For.Laughs.Gags-2210-Light.Bondage.avi4.43 Mb torrent search
Just.For.Laughs.Gags-2211-Eye.Contact.avi7 Mb torrent search

Sample info:
Duration: 00:02:49.50, start: 0.000000, bitrate: 509 kb/s
Stream #0.0: Video: mpeg4 (Advanced Simple Profile), yuv420p, 320x240 [PAR 1:1 DAR 4:3], 29.97 tbr, 29.97 tbn, 29.97 tbc
Stream #0.1: Audio: mp3, 48000 Hz, stereo, s16, 64 kb/s
screenshots
Just For Laughs Collection torrent screenshot 35C3717A91820F4775DE775D34BD545C4E8E5C0F Just For Laughs Collection  torrent screenshot 35c3717a91820f4775de775d34bd545c4e8e5c0f torrent Just For Laughs Collection
Just.For.Laughs.Collection.Volumes.1-4 images are auto generated please report any inapropriate images
 

related search cloud

 just  laughs  gags  blind  umbrella  attack  band  drag  control  dont