Torrent Search | Torrent Meta Search | Widgets

Marc Dorcel After Party Bitches XXX

1.37 Gb
found 2 years ago
▲ seeders: 2 ▼ leechers:1
your vote:
real:
fake:
Direct Download
THANK YOU
download torrent
  Direct Downloadsponsored

Marc Dorcel After Party Bitches XXX torrent

Information about the torrent Marc Dorcel After Party Bitches XXX. Seeders, leechers and torrent status is updated everyday.

If you want to download the european torrent Marc Dorcel After Party Bitches XXX you will need a torrent client.

Torrent Metasearch.

tracker
seeders
leechers
↓ torrent client compatible list

↑ hide torrent client compatible list

Help torrentproject.com to stay alive .
Add links of torrentproject.com in your favorite forum, blog, youtube, facebook, twitter etc.
reviews
140
torrent contents

Marc Dorcel After Party Bitches XXX torrent

Marc Dorcel After Party Bitches XXX
 Marc.Dorcel-After.Party.Bitches.FRENCH.XXX
Marc.Dorcel-After.Party.Bitches.FRENCH.XXX.a.avi698.47 Mb torrent search
Marc.Dorcel-After.Party.Bitches.FRENCH.XXX.b.avi700.26 Mb torrent search

Sample info:
Duration: 00:48:22.90, start: 0.000000, bitrate: 2023 kb/s
Stream #0.0: Video: mpeg4 (Advanced Simple Profile), yuv420p, 640x256 [PAR 1:1 DAR 5:2], 29.97 tbr, 29.97 tbn, 29.98 tbc
Stream #0.1: Audio: mp3, 48000 Hz, stereo, s16, 131 kb/s
screenshots
Marc Dorcel After Party torrent screenshot 37E55DC4DFBE093C420D9FBABD00F014C8D7D6B0 Marc Dorcel After Party  torrent screenshot 37e55dc4dfbe093c420d9fbabd00f014c8d7d6b0 torrent Marc Dorcel After Party
Marc Dorcel After Party Bitches XXX images are auto generated please report any inapropriate images
 

related search cloud

 bitches  party  after  marc  dorcel  french