Torrent Search | Torrent Meta Search | Widgets

PureNudism

15.6 Gb
found 3 years ago
▲ seeders: 2 ▼ leechers:4
your vote:
real:
fake:
Direct Download
THANK YOU
download torrent
  Direct Downloadsponsored

PureNudism torrent

Information about the torrent PureNudism. Seeders, leechers and torrent status is updated everyday.

If you want to download the video torrent PureNudism you will need a torrent client.

Torrent Metasearch.

tracker
seeders
leechers
↓ torrent client compatible list

↑ hide torrent client compatible list

Help torrentproject.com to stay alive .
Add links of torrentproject.com in your favorite forum, blog, youtube, facebook, twitter etc.
reviews
140
torrent contents

PureNudism torrent

PureNudism
Beachfont Camping 001.wmv48.6 Mb torrent search
Beachfont Camping 002.wmv19.48 Mb torrent search
Beachfont Camping 003.wmv15.66 Mb torrent search
Beachfont Camping 004.wmv68.59 Mb torrent search
Beachfont Camping 005.wmv36.14 Mb torrent search
Beachfont Camping 006.wmv57.82 Mb torrent search
Beachfont Camping 007.wmv24.83 Mb torrent search
Beachfont Camping 008.wmv5.47 Mb torrent search
Beachfont Camping 009.wmv29.36 Mb torrent search
Beachfont Camping 010.wmv15.26 Mb torrent search
Beachfont Camping 011.wmv12.83 Mb torrent search
Beachfont Camping 012.wmv36.18 Mb torrent search
Beachfont Camping 013.wmv22.47 Mb torrent search
Beachfont Camping 014.wmv42.94 Mb torrent search
Beachfont Camping 015.wmv30.49 Mb torrent search
Beachfont Camping 016.wmv45.13 Mb torrent search
Beachfont Camping 017.wmv26.46 Mb torrent search
Beachfont Camping 018.wmv49.95 Mb torrent search
Beachfont Camping 019.wmv11.37 Mb torrent search
Beachfont Camping 020.wmv29.73 Mb torrent search
Beachfont Camping 021.wmv13.17 Mb torrent search
Beachfont Camping 022.wmv31.06 Mb torrent search
Beachfont Camping 023.wmv23.16 Mb torrent search
Beachfont Camping 024.wmv4.65 Mb torrent search
Beachfont Camping 025.wmv15.52 Mb torrent search
Beachfont Camping 026.wmv25.32 Mb torrent search
Beachfont Camping 027.wmv35.41 Mb torrent search
Beachfont Camping 028.wmv29.92 Mb torrent search
Beachfont Camping 029.wmv19 Mb torrent search
Beachfont Camping 030.wmv23.95 Mb torrent search
Beachfont Camping 031.wmv32.55 Mb torrent search
Beachfont Camping 032.wmv12.86 Mb torrent search
Beachfont Camping 033.wmv22.71 Mb torrent search
Beachfont Camping 034.wmv25.85 Mb torrent search
Beachfont Camping 035.wmv18.57 Mb torrent search
Beachfont Camping 036.wmv15.67 Mb torrent search
Beachfont Camping 037.wmv25.72 Mb torrent search
Beachfont Camping 038.wmv9.79 Mb torrent search

Sample info:
Duration: 00:01:31.28, start: 0.000000, bitrate: 10580 kb/s
Stream #0.0(eng): Audio: wmav2, 44100 Hz, 1 channels, s16, 32 kb/s
Stream #0.1(eng): Video: wmv3 (Main), yuv420p, 704x396, 3000 kb/s, 25 tbr, 1k tbn, 1k tbc
screenshots
PureNudism torrent screenshot 3811F6B0513993A4A29EBCD713D76F70E753B690 PureNudism torrent screenshot 3811f6b0513993a4a29ebcd713d76f70e753b690 torrent PureNudism
PureNudism images are auto generated please report any inapropriate images
 

related search cloud

 camping  beachfont  beac  purenudism