Torrent Search | Torrent Meta Search | Widgets

Brasileirinhas Familia Incestuosa 3

       
699.63 Mb
found 3 years ago
▲ seeders: 19 ▼ leechers:4
your vote:
real:
fake:
Direct Download
THANK YOU
download torrent
  Direct Downloadsponsored

Brasileirinhas Familia Incestuosa 3 torrent

Information about the torrent Brasileirinhas Familia Incestuosa 3. Seeders, leechers and torrent status is updated several times per day.

If you want to download the video torrent Brasileirinhas Familia Incestuosa 3 you will need a torrent client.

Torrent Metasearch.

Torrent verified by kat.ph.

tracker
seeders
leechers
↓ torrent client compatible list

↑ hide torrent client compatible list

Help torrentproject.com to stay alive .
Add links of torrentproject.com in your favorite forum, blog, youtube, facebook, twitter etc.
reviews
140
torrent contents

Brasileirinhas Familia Incestuosa 3.avi torrent

Brasileirinhas Familia Incestuosa 3.avi699.63 Mb torrent search

Sample info:
Duration: 02:16:36.35, start: 0.000000, bitrate: 716 kb/s
Stream #0.0: Video: mpeg4 (Advanced Simple Profile), yuv420p, 512x384 [PAR 1:1 DAR 4:3], 29.97 tbr, 29.97 tbn, 29.97 tbc
Stream #0.1: Audio: mp3, 48000 Hz, stereo, s16, 96 kb/s
screenshots
Brasileirinhas Familia Incestuosa 3 torrent screenshot 398E5D5FF95233AE748A2C868D0EE39541BFA727 Brasileirinhas Familia Incestuosa 3 torrent screenshot 398e5d5ff95233ae748a2c868d0ee39541bfa727 torrent Brasileirinhas Familia Incestuosa 3
Brasileirinhas Familia Incestuosa 3.avi images are auto generated please report any inapropriate images
you may be interested in these torrents seeders leechers size found
Brasileirinhas Familia Incestuosa 2 (2006) DVDRip 3 0 957.45 Mb 2 months ago

Familia.Incestuosa.2.mp4 RARBG.com.txt poster.jpg screen


 

related search cloud

 incestuosa  familia  brasileirinhas