Torrent Search | Torrent Meta Search | Widgets

Gf Revenge Kierra Locker Room

204.82 Mb
found 3 years ago
▲ seeders: 3 ▼ leechers:1
your vote:
real:
fake:
Direct Download
THANK YOU
download torrent
  Direct Downloadsponsored

Gf Revenge Kierra Locker Room torrent

Information about the torrent Gf Revenge Kierra Locker Room. Seeders, leechers and torrent status is updated several times per day.

If you want to download the video torrent Gf Revenge Kierra Locker Room you will need a torrent client.

Torrent Metasearch.

tracker
seeders
leechers
↓ torrent client compatible list

↑ hide torrent client compatible list

Help torrentproject.com to stay alive .
Add links of torrentproject.com in your favorite forum, blog, youtube, facebook, twitter etc.
reviews
140
torrent contents

Gf.Revenge.-.Kierra.-.Locker.Room torrent

Gf.Revenge.-.Kierra.-.Locker.Room
Gf.Revenge.-.Kierra.-.Locker.Room.avi204.5 Mb torrent search
SCREENS1_Gf.Revenge.-.Kierra.-.Locker.Room.jpg304.71 Kb torrent search
POSTER1_Gf.Revenge.-.Kierra.-.Locker.Room.jpg30.75 Kb torrent search
nfo.nfo104 bytes torrent search

Sample info:
Duration: 00:16:47.56, start: 0.000000, bitrate: 1702 kb/s
Stream #0.0: Video: mpeg4 (Advanced Simple Profile), yuv420p, 768x432 [PAR 1:1 DAR 16:9], 30 fps, 30 tbr, 30 tbn, 30 tbc
Stream #0.1: Audio: mp3, 44100 Hz, stereo, s16, 192 kb/s
screenshots
Gf Revenge Kierra Locker torrent screenshot 39BC503075931A13CFDBE17CD5345DC069B9BAB5 Gf Revenge Kierra Locker  torrent screenshot 39bc503075931a13cfdbe17cd5345dc069b9bab5 torrent Gf Revenge Kierra Locker
Gf.Revenge.-.Kierra.-.Locker.Room images are auto generated please report any inapropriate images
 

related search cloud

 revenge  locker  kierra  room  poster  screens

Torrent Anonymous Download