Torrent Search | Torrent Meta Search | Widgets

Extremely Loud and Incredibly Close (2011)

       
775.13 Mb
found 2 years ago
▲ seeders: 112 ▼ leechers:19
your vote:
real:
fake:
Direct Download
THANK YOU
download torrent
  Direct Downloadsponsored

Extremely Loud and Incredibly Close (2011) torrent

Information about the torrent Extremely Loud and Incredibly Close (2011). Seeders, leechers and torrent status is updated everyday.

If you want to download the hdrip torrent Extremely Loud and Incredibly Close (2011) you will need a torrent client.

Torrent Metasearch.

Torrent verified by kat.ph.

tracker
seeders
leechers
↓ torrent client compatible list

↑ hide torrent client compatible list

Help torrentproject.com to stay alive .
Add links of torrentproject.com in your favorite forum, blog, youtube, facebook, twitter etc.
reviews
140
torrent contents

Extremely Loud and Incredibly Close (2011) torrent

Extremely Loud and Incredibly Close (2011)
Extremely.Loud.and.Incredibly.Close.2011.720p.BluRay.X264.YIFY.mp4774.89 Mb torrent search
Extremely.Loud.and.Incredibly.Close.2011.720p.BluRay.X264.YIFY.srt108.17 Kb torrent search

Extremely Loud and Incredibly Close (2011)
 Other
AhaShare.com.txt59 bytes torrent search
Torrent downloaded from Demonoid.com - Copy.txt47 bytes torrent search
Torrent Downloaded From ExtraTorrent.com.txt353 bytes torrent search

Extremely Loud and Incredibly Close (2011)
WWW.YIFY-TORRENTS.COM.jpg127.61 Kb torrent search

Sample info:
Duration: 02:09:28.87, start: 0.000000, bitrate: 836 kb/s
Stream #0.0	: Audio: aac, 48000 Hz, stereo, s16, 35 kb/s
creation_time	: 2012-03-17 07:59:21
Stream #0.1	: Video: h264 (High), yuv420p, 1280x536 [PAR 1:1 DAR 160:67], 797 kb/s, 23.98 fps, 23.98 tbr, 96k tbn, 47.95 tbc
creation_time	: 2012-03-15 13:07:05
screenshots
Extremely Loud and Incredibly torrent screenshot 39EC2611F0A942D300A9DB381B48A1BEC1B6B778 Extremely Loud and Incredibly  torrent screenshot 39ec2611f0a942d300a9db381b48a1bec1b6b778 torrent Extremely Loud and Incredibly
Extremely Loud and Incredibly Close (2011) images are auto generated please report any inapropriate images
 

related search cloud

 close  incredibly  loud  extremely  yify  torrent  bluray  downloaded  extratorrent  torrents

Torrent Anonymous Download