Torrent Search | Torrent Meta Search | Widgets

Egzorcyzmy Emily Rose (2005)

       
700.01 Mb
found 3 years ago
▲ seeders: 1 ▼ leechers:1
your vote:
real:
fake:
Direct Download
THANK YOU
download torrent
  Direct Downloadsponsored

Egzorcyzmy Emily Rose (2005) torrent

Information about the torrent Egzorcyzmy Emily Rose (2005). Seeders, leechers and torrent status is updated everyday.

If you want to download the dvdrip torrent Egzorcyzmy Emily Rose (2005) you will need a torrent client.

Torrent Metasearch.

Torrent verified by kat.ph.

tracker
seeders
leechers
↓ torrent client compatible list

↑ hide torrent client compatible list

Help torrentproject.com to stay alive .
Add links of torrentproject.com in your favorite forum, blog, youtube, facebook, twitter etc.
reviews
140
torrent contents

Egzorcyzmy Emily Rose (2005) [TnT24.Info] torrent

Egzorcyzmy Emily Rose (2005) [TnT24.Info]
The Exorcism of Emily Rose (2005) [DVDRip.XviD-Zryty TB] [Lektor PL].avi700.01 Mb torrent search
Opis.txt1.76 Kb torrent search

Sample info:
Duration: 01:56:46.52, start: 0.000000, bitrate: 838 kb/s
Stream #0.0: Video: mpeg4, yuv420p, 608x256 [PAR 1:1 DAR 19:8], 25 tbr, 25 tbn, 25 tbc
Stream #0.1: Audio: mp3, 48000 Hz, 2 channels, s16, 114 kb/s
screenshots
Egzorcyzmy Emily Rose 2005 torrent screenshot 3A4DF8B866E8F60E2D5C1D4836E9C2B6CA3EFED9 Egzorcyzmy Emily Rose 2005  torrent screenshot 3a4df8b866e8f60e2d5c1d4836e9c2b6ca3efed9 torrent Egzorcyzmy Emily Rose 2005
Egzorcyzmy Emily Rose (2005) [TnT24.Info] images are auto generated please report any inapropriate images
 

related search cloud

 emily  rose  zryty  lektor  opis  xvid  exorcism  info  egzorcyzmy  dvdrip

Torrent Anonymous Download