Torrent Search | Torrent Meta Search | Widgets

Kick Ass (2010) DVDRip aXXo

       
701.73 Mb
found 3 years ago
▲ seeders: 17 ▼ leechers:1
your vote:
real:
fake:
Direct Download
THANK YOU
download torrent
  Direct Downloadsponsored

Kick Ass (2010) DVDRip aXXo torrent

Information about the torrent Kick Ass (2010) DVDRip aXXo. Seeders, leechers and torrent status is updated everyday.

If you want to download the dvdrip torrent Kick Ass (2010) DVDRip aXXo you will need a torrent client.

Torrent Metasearch.

Torrent verified by torlock.com.

tracker
seeders
leechers
↓ torrent client compatible list

↑ hide torrent client compatible list

Help torrentproject.com to stay alive .
Add links of torrentproject.com in your favorite forum, blog, youtube, facebook, twitter etc.
reviews
140
torrent contents

[ www.Speed.cd ] Kick.Ass[2010]DvDrip-aXXo torrent

[ www.Speed.cd ] Kick.Ass[2010]DvDrip-aXXo
Kick.Ass[2010]DvDrip-aXXo.avi701.72 Mb torrent search
kick.ass-aXXo.nfo7.78 Kb torrent search
1st read this!.txt327 bytes torrent search

Sample info:
Duration: 01:57:47.35, start: 0.000000, bitrate: 832 kb/s
Stream #0.0: Video: mpeg4, yuv420p, 640x272 [PAR 1:1 DAR 40:17], 23.98 tbr, 23.98 tbn, 23.98 tbc
Stream #0.1: Audio: mp3, 44100 Hz, 2 channels, s16, 112 kb/s
screenshots
Kick Ass 2010 DVDRip torrent screenshot 3B4CBB01121BA5B307949C8FACC4CE43252C47FE Kick Ass 2010 DVDRip  torrent screenshot 3b4cbb01121ba5b307949c8facc4ce43252c47fe torrent Kick Ass 2010 DVDRip
[ www.Speed.cd ] Kick.Ass[2010]DvDrip-aXXo images are auto generated please report any inapropriate images
 

related search cloud

 kick  axxo  dvdrip  read  speed