Torrent Search | Torrent Meta Search | Widgets

Robin Hood (2010) lektor PL

       
1.37 Gb
found 3 years ago
▲ seeders: 1 ▼ leechers:0
your vote:
real:
fake:
Direct Download
THANK YOU
download torrent
  Direct Downloadsponsored

Robin Hood (2010) lektor PL torrent

Information about the torrent Robin Hood (2010) lektor PL. Seeders, leechers and torrent status is updated everyday.

If you want to download the dvdrip torrent Robin Hood (2010) lektor PL you will need a torrent client.

Torrent Metasearch.

Torrent verified by kat.ph.

tracker
seeders
leechers
↓ torrent client compatible list

↑ hide torrent client compatible list

Help torrentproject.com to stay alive .
Add links of torrentproject.com in your favorite forum, blog, youtube, facebook, twitter etc.
reviews
140
torrent contents

Robin Hood (2010) lektor PL torrent

Robin Hood 2010 lektor PL
BLOG Z FILMAMI. DLA KAŻDEGO..url209 bytes torrent search
KLUB 90s- BLOG Z MUZYKÄ„ LAT 90-tych. DANCE, EURODANCE, HAPPY, HARDCORE, RAVE, TECHNO.url200 bytes torrent search
QDAY-POLSKI LOCKERZ.WSZYSTKO ZA 0ZŁ + VAT.url222 bytes torrent search
Robin.Hood.2010.PL.UNRATED.DC.DVDRip.XviD.AC3-EM0C0RE.avi1.37 Gb torrent search
WAŻNE- ZARABIAJ Z CHOMIKIEM.PL.txt4.18 Kb torrent search

Sample info:
Duration: 02:36:01.44, start: 0.000000, bitrate: 1254 kb/s
Stream #0.0: Video: mpeg4, yuv420p, 624x256 [PAR 1:1 DAR 39:16], 23.98 tb(r)
Stream #0.1: Audio: ac3, 48000 Hz, 5:1, 448 kb/s
screenshots
Robin Hood 2010 lektor torrent screenshot 3BC4EDC59A8563DD3C678E856FEAB38AF450A6CE Robin Hood 2010 lektor  torrent screenshot 3bc4edc59a8563dd3c678e856feab38af450a6ce torrent Robin Hood 2010 lektor
Robin Hood (2010) lektor PL images are auto generated please report any inapropriate images
 

related search cloud

 robin  blog  hood  lockerz  polski  qday  wszystko  dvdrip  chomikiem  zarabiaj

Torrent Anonymous Download