Torrent Search | Torrent Meta Search | Widgets

After Hours Martin Scorsese (1985) DVDRip x264 VLiS

       
1 Gb
found 3 years ago
▲ seeders: 59 ▼ leechers:2
your vote:
real:
fake:
Direct Download
THANK YOU
download torrent
  Direct Downloadsponsored

After Hours Martin Scorsese (1985) DVDRip x264 VLiS torrent

Information about the torrent After Hours Martin Scorsese (1985) DVDRip x264 VLiS. Seeders, leechers and torrent status is updated several times per day.

If you want to download the dvdrip torrent After Hours Martin Scorsese (1985) DVDRip x264 VLiS you will need a torrent client.

Torrent Metasearch.

Torrent verified by torlock.com.

tracker
seeders
leechers
↓ torrent client compatible list

↑ hide torrent client compatible list

Help torrentproject.com to stay alive .
Add links of torrentproject.com in your favorite forum, blog, youtube, facebook, twitter etc.
reviews
140
torrent contents

After Hours [Martin Scorsese].1985.DVDRip.x264-VLiS torrent

After Hours [Martin Scorsese].1985.DVDRip.x264-VLiS
After Hours [Martin Scorsese].1985.DVDRip.x264-VLiS.mkv1 Gb torrent search

Sample info:
Duration: 01:33:08.37, start: 0.000000, bitrate: N/A
Stream #0.0(eng): Video: h264, yuv420p, 720x400, PAR 1:1 DAR 9:5, 25 fps, 25 tbr, 1k tbn, 50 tbc
Stream #0.1(eng): Audio: aac, 48000 Hz, mono, s16
Stream #0.2(eng): Subtitle: [0][0][0][0] / 0x0000
Stream #0.3(spa): Subtitle: [0][0][0][0] / 0x0000
Stream #0.4(fre): Subtitle: [0][0][0][0] / 0x0000
Stream #0.5(ger): Subtitle: [0][0][0][0] / 0x0000
Stream #0.6(dut): Subtitle: [0][0][0][0] / 0x0000
Stream #0.7(gre): Subtitle: [0][0][0][0] / 0x0000
Stream #0.8(por): Subtitle: [0][0][0][0] / 0x0000
Stream #0.9(swe): Subtitle: [0][0][0][0] / 0x0000
Stream #0.10(nor): Subtitle: [0][0][0][0] / 0x0000
screenshots
After Hours Martin Scorsese torrent screenshot 3C83878F004201D0EC1EAEA7018ED0002FF10D0E After Hours Martin Scorsese  torrent screenshot 3c83878f004201d0ec1eaea7018ed0002ff10d0e torrent After Hours Martin Scorsese
After Hours [Martin Scorsese].1985.DVDRip.x264-VLiS images are auto generated please report any inapropriate images
 

related search cloud

 dvdrip  vlis  scorsese  martin  hours  after

Torrent Anonymous Download