Torrent Search | Torrent Meta Search | Widgets

The Hunger (1983) Catherine Deneuve David Bowie Susan Sarandon

       
699.17 Mb
found 4 years ago
▲ seeders: 12 ▼ leechers:0
your vote:
real:
fake:
Direct Download
THANK YOU
download torrent
  Direct Downloadsponsored

The Hunger (1983) Catherine Deneuve David Bowie Susan Sarandon torrent

Information about the torrent The Hunger (1983) Catherine Deneuve David Bowie Susan Sarandon. Seeders, leechers and torrent status is updated several times per day.

If you want to download the video torrent The Hunger (1983) Catherine Deneuve David Bowie Susan Sarandon you will need a torrent client.

Torrent Metasearch.

Torrent verified by isohunt.com.

tracker
seeders
leechers
↓ torrent client compatible list

↑ hide torrent client compatible list

Help torrentproject.com to stay alive .
Add links of torrentproject.com in your favorite forum, blog, youtube, facebook, twitter etc.
reviews
140
torrent contents

The Hunger (1983) [Catherine Deneuve, David Bowie, Susan Sarandon].avi torrent

The Hunger (1983) [Catherine Deneuve, David Bowie, Susan Sarandon].avi699.17 Mb torrent search

Sample info:
Duration: 01:36:30.12, start: 0.000000, bitrate: 1012 kb/s
Stream #0.0: Video: mpeg4, yuv420p, 640x272 [PAR 1:1 DAR 40:17], 23.98 tbr, 23.98 tbn, 23.98 tbc
Stream #0.1: Audio: mp3, 48000 Hz, 1 channels, s16, 73 kb/s
screenshots
The Hunger 1983 Catherine torrent screenshot 3CBF253B3508FF6DAA5A8B44DAFF383EA086B8B2 The Hunger 1983 Catherine  torrent screenshot 3cbf253b3508ff6daa5a8b44daff383ea086b8b2 torrent The Hunger 1983 Catherine
The Hunger (1983) [Catherine Deneuve, David Bowie, Susan Sarandon].avi images are auto generated please report any inapropriate images
you may be interested in these torrents seeders leechers size found
Other Vampire Movies 2 0 2 12.93 Gb 3 years ago

BloodRayne 2005.avi Bloodrayne.2.2007.avi Bloodwars 2008 - The Thirst.avi 0


The Hunger Les Prédateurs FR VOSTR 0 3 699.21 Mb 3 years ago

The Hunger (1983) [Catherine Deneuve, David Bowie, Susan Sarandon]-fr.srt The Hunger (1983)


 

related search cloud

 susan  sarandon  bowie  david  catherine  deneuve  hunger