Torrent Search | Torrent Meta Search | Widgets

18OG Super Squirt

       
1.16 Gb
found 2 years ago
▲ seeders: 1 ▼ leechers:1
your vote:
real:
fake:
Direct Download
THANK YOU
download torrent
  Direct Downloadsponsored

18OG Super Squirt torrent

Information about the torrent 18OG Super Squirt. Seeders, leechers and torrent status is updated everyday.

If you want to download the video torrent 18OG Super Squirt you will need a torrent client.

Torrent Metasearch.

Torrent verified by kat.ph.

tracker
seeders
leechers
↓ torrent client compatible list

↑ hide torrent client compatible list

Help torrentproject.com to stay alive .
Add links of torrentproject.com in your favorite forum, blog, youtube, facebook, twitter etc.
reviews
140
torrent contents

18OG - Super Squirt torrent

18OG - Super Squirt
[18OnlyGirls] Super Squirt.wmv1.16 Gb torrent search

Sample info:
Duration: 00:19:02.88, start: 3.000000, bitrate: 8724 kb/s
Stream #0.0(rus): Audio: wmav2, 44100 Hz, 2 channels, s16, 192 kb/s
Stream #0.1(rus): Video: wmv3, yuv420p, 1920x1080, 8491 kb/s, 29.97 tbr, 1k tbn, 1k tbc
screenshots
18OG Super Squirt torrent screenshot 3CCE6C82B682E8DE3B03CAF092214064D7939F92 18OG Super Squirt torrent screenshot 3cce6c82b682e8de3b03caf092214064d7939f92 torrent 18OG Super Squirt
18OG - Super Squirt images are auto generated please report any inapropriate images
 

related search cloud

 super  squirt  onlygirls